ML
     
  Уважаемый Гость!
Вы можете поддержать проект и зарегистрироваться у наших партнеров - онлайн-стратегия MyLands. При регистрации в игре Вы получите код, который сможете активировать после регистрации на pirat.ca и получить 1000 дублонов.

Ваш код:
1a5b0a965618b2c406d4279ec9924ee6282c60cf
 
     

Легок На Помине (Евгений Абызов) [2014 г., Комедия, Фантастика, BDRip] [Лицензия]

Ответить на тему
 
Автор
Сообщение

Пост 05-Апр-2014 09:53

[Q] 

Gromilo

Флибустьер

-Легок На Помине -- Производство: Россия | Enjoy Movies
Режиссер: Евгений Абызов
Жанр: Комедия, Фантастика
Год выпуска: 2014 г.
Продолжительность: 01:22:16
Российская премьера: 27 февраля 2014
Дата выхода DVD: 8 апреля 2014
Дата выхода Blu-Ray: 8 апреля 2014-В ролях: Гарик Харламов, Кристина Асмус, Екатерина Васильева, Александр Ревва, Татьяна Космачева, Владимир Яглыч, Сергей Сафронов, Юрий Кузнецов, Анна Антонова, Александр Самойленко-Описание: Молодому и успешному риелтору Павлу, провернувшему немало полулегальных сделок, необходимо получить доверенность на куплю-продажу старинного поместья. А для этого втереться в доверие к владелице недвижимости, одинокой старушке, доживающей свои дни в родовом гнезде. Разработав хитрый план, риелтор-аферист получает заветную бумагу и начинает готовить поместье к продаже, празднуя очередную победу. Но не тут-то было! В отлаженный ход событий вмешиваются высшие силы. С наступлением темноты с Павлом происходят необъяснимые события — он внезапно начинает перемещаться в пространстве…-Сэмпл КиноПоиск
Качество видео: BDRip
Контейнер: AVI
Видео кодек: XviD
Аудио кодек: AC3
Видео: ~ Xvid 1921 Кбит/сек, 720 x 304 (2.368) at 24.000 fps
Аудио: AC3 5.1 448 Кбит/сек, 48,0 КГц, 16 бит
Cубтитры: отсутствуют
Полное имя : F:\Legok.na.Pomine.2014.O.BDRip.1400Mb.avi
Формат : AVI
Формат/Информация : Audio Video Interleave
Размер файла : 1,37 Гбайт
Продолжительность : 1 ч. 22 м.
Общий поток : 2378 Кбит/сек
Программа кодирования : VirtualDubMod 1.5.10.2 (build 2540/release)
Библиотека кодирования : VirtualDubMod build 2540/release
Видео
Идентификатор : 0
Формат : MPEG-4 Visual
Профиль формата : Advanced [email protected]
Параметр BVOP формата : 2
Параметр QPel формата : Нет
Параметр GMC формата : Без точки перехода
Параметр матрицы формата : Выборочная
Идентификатор кодека : XVID
Идентификатор кодека/Подсказка : XviD
Продолжительность : 1 ч. 22 м.
Битрейт : 1921 Кбит/сек
Ширина : 720 пикселей
Высота : 304 пикселя
Соотношение сторон : 2,35:1
Частота кадров : 24,000 кадра/сек
Цветовое пространство : YUV
Субдискретизация насыщенности : 4:2:0
Битовая глубина : 8 бит
Тип развёртки : Прогрессивная
Метод сжатия : С потерями
Бит/(Пиксели*Кадры) : 0.366
Размер потока : 1,10 Гбайт (81%)
Библиотека кодирования : XviD 1.2.1 (UTC 2008-12-04)
Аудио
Идентификатор : 1
Формат : AC-3
Формат/Информация : Audio Coding 3
Расширение режима : CM (complete main)
Параметр Endianness формата : Big
Идентификатор кодека : 2000
Продолжительность : 1 ч. 22 м.
Вид битрейта : Постоянный
Битрейт : 448 Кбит/сек
Каналы : 6 каналов
Расположение каналов : Front: L C R, Side: L R, LFE
Частота : 48,0 КГц
Битовая глубина : 16 бит
Метод сжатия : С потерями
Размер потока : 264 Мбайт (19%)
Выравнивание : Разделение по промежуткам
Продолжительность промежутка : 42 мс. (1,00 видеокадр)
Время предзагрузки промежутка : 500 мс.
Download / Скачать

Хотите скачать бесплатно? Зарегистрируйтесь на сайте (ссылка на регистрацию). Pirat.ca - самый быстрый торрент трекер в рунете!

Как скачивать  ·   Что такое торрент  ·   Рейтинг и ограничения

Пост 05-Апр-2014 11:23 (спустя 1 час 29 минут)

Топик был перенесен из форума Наше кино (Трюм) в форум Новинки (HD|DVD|BD| TV|SAT|PDTV| - Rips)
kugesan
 

Urlhtml

Корсар

Пост 05-Апр-2014 13:10 (спустя 3 часа)

[Q] 

Спасибо!!! Автору респект!!!
[Профиль]  [ЛС] 

Феонолини

Шкипер

Пост 18-Апр-2014 20:22 (спустя 13 дней)

[Q] 

Заценим.

_________________
Где есть свет, всегда есть тень. Под светом счастья... Всегда есть тень отчаяния ...
Хун Мин
[Профиль]  [ЛС] 

Максимус666

Морской Волк

Пост 19-Апр-2014 08:15 (спустя 11 часов)

[Q] 

особо конечно нечего сказать,на разик посмотреть

_________________
Тысяча чертей!
[Профиль]  [ЛС] 

zzzaaa

Шкипер

Пост 19-Апр-2014 11:08 (спустя 2 часа 53 минуты)

[Q] 

Очередное... произведение
[Профиль]  [ЛС] 
Показать сообщения:    
Ответить на тему

Текущее время: Сегодня 23:49

Часовой пояс: GMT + 4



Вы не можете начинать темы
Вы не можете отвечать на сообщения
Вы не можете редактировать свои сообщения
Вы не можете удалять свои сообщения
Вы не можете голосовать в опросах
Вы не можете прикреплять файлы к сообщениям
Вы не можете скачивать файлы

▼ Вниз