ML
     
  Уважаемый Гость!
Вы можете поддержать проект и зарегистрироваться у наших партнеров - онлайн-стратегия MyLands. При регистрации в игре Вы получите код, который сможете активировать после регистрации на pirat.ca и получить 1000 дублонов.

Ваш код:
93dbf9fbdfa06c41d3b5a2c3921149ba36168c41
 
     

Альпинисты (Аршо Арутюнян) [2014 г., Приключения, DVDRip] «Мистерия Звука»

Ответить на тему
 
Автор
Сообщение

Пост 07-Апр-2014 21:32

[Q] 

Resident

-Альпинисты-- Производство: Россия Студия Берг Саунд
Режиссер: Аршо Арутюнян
Жанр: Приключения
Год выпуска: 2014 г.
Продолжительность: 01:28:14
Дата выхода DVD: 13 марта 2014, «Мистерия Звука»
В ролях: Наталья Бардо, Дмитрий Клепацкий, Александр Носик, Александр Рапопорт, Наталья Громушкина, Арам Караханян, Дэвид Кацарава, Виген Степанян, Армен Петросян, Ерванд Енгибаряняк-Описание: Однажды два друга-альпиниста, работающих горными спасателями, влюбленных в одну и ту же девушку, сопровождают туристов в горах Армении. В результате безответственности одного из друзей погибает турист! По решению суда он попадает в тюрьму. В обмен на свободу криминальный авторитет предлагает ему быть горным проводником в одном деле. Нужно достать припрятанный в горной пещере до лучших времен клад. Дороги друзей пересекаются! Их любимую берут в заложники. Им самим угрожает смерть, но отступать некуда… Дружба, обида, корысть, любовь, страх за жизнь - что в результате победит?- Качество видео: DVDRip
Контейнер: AVI
Видео кодек: XviD
Аудио кодек: AC3
Видео: 720x400 (1.80:1), 25 fps, XviD build 50 ~2015 kbps avg, 0.28 bit/pixel
Аудио: 48 kHz, AC3 Dolby Digital, 2/0 (L,R) ch, ~192 kbps Оригинальное [Лицензия]
General
Complete name : W:\Aljpinisty.2014.O.DVDRip.1400Mb.avi
Format : AVI
Format/Info : Audio Video Interleave
File size : 1.37 GiB
Duration : 1h 28mn
Overall bit rate : 2 218 Kbps
Writing application : VirtualDubMod 1.5.10.2 (build 2540/release)
Writing library : VirtualDubMod build 2540/release
Video
ID : 0
Format : MPEG-4 Visual
Format profile : Advanced [email protected]
Format settings, BVOP : Yes
Format settings, QPel : No
Format settings, GMC : No warppoints
Format settings, Matrix : Default (MPEG)
Codec ID : XVID
Codec ID/Hint : XviD
Duration : 1h 28mn
Bit rate : 2 016 Kbps
Width : 720 pixels
Height : 400 pixels
Display aspect ratio : 16:9
Frame rate : 25.000 fps
Color space : YUV
Chroma subsampling : 4:2:0
Bit depth : 8 bits
Scan type : Progressive
Bits/(Pixel*Frame) : 0.280
Stream size : 1.24 GiB (91%)
Writing library : XviD 1.2.1 (UTC 2008-12-04)
Audio
ID : 1
Format : AC-3
Format/Info : Audio Coding 3
Mode extension : CM (complete main)
Codec ID : 2000
Duration : 1h 28mn
Bit rate mode : Constant
Bit rate : 192 Kbps
Channel(s) : 2 channels
Channel positions : Front: L R
Sampling rate : 48.0 KHz
Bit depth : 16 bits
Stream size : 121 MiB (9%)
Alignment : Split accross interleaves
Interleave, duration : 40 ms (1.00 video frame)
Interleave, preload duration : 500 ms
Download / Скачать

Хотите скачать бесплатно? Зарегистрируйтесь на сайте (ссылка на регистрацию). Pirat.ca - самый быстрый торрент трекер в рунете!

Как скачивать  ·   Что такое торрент  ·   Рейтинг и ограничения

Пост 07-Апр-2014 23:29 (спустя 1 час 57 минут)

Топик был перенесен из форума Наше кино (Трюм) в форум Новинки (HD|DVD|BD| TV|SAT|PDTV| - Rips)
kugesan
 

rfgrim

Лоцман

Пост 08-Апр-2014 00:41 (спустя 3 часа)

[Q] 

Как фильм, стоит качать?
[Профиль]  [ЛС] 

alexdubna

Морской Волк

Пост 08-Апр-2014 00:49 (спустя 8 минут)

[Q] 

Благодарствую!!! Спасибо!!!
[Профиль]  [ЛС] 

master

Лоцман

Пост 08-Апр-2014 09:43 (спустя 8 часов)

[Q] 

скалолаз 2222
[Профиль]  [ЛС] 

infiniti-r

Корсар

Пост 08-Апр-2014 12:29 (спустя 2 часа 46 минут)

[Q] 

Спасибо!!! Посмотрим и оценим!!!
[Профиль]  [ЛС] 

Ромиго

Лоцман

Пост 08-Апр-2014 13:05 (спустя 35 минут)

[Q] 

Аршо Спилберг - брат Стивена Спилберга))) Пошутил однажды Гарик Мартиросян. Кому еще часто бросается в глаза что режиссеры наших фильмов армяне? Где этот армянский факультет режиссуры? Да ары народ ушлый, глядишь и в Голливуд скоро пролезут)))
[Профиль]  [ЛС] 

ягжин

Гроза морей

Пост 08-Апр-2014 19:05 (спустя 6 часов)

[Q] 

Попробуем, посмотрим! Спасибо!!!
[Профиль]  [ЛС] 

airat85

Корсар

Пост 08-Апр-2014 20:09 (спустя 1 час 3 минуты)

[Q] 

ну и как можно смотреть?
[Профиль]  [ЛС] 

Urlhtml

Корсар

Пост 08-Апр-2014 20:31 (спустя 22 минуты)

[Q] 

Вы лучшие! Раздающему респект!
[Профиль]  [ЛС] 

Skala973

Корсар

Пост 08-Апр-2014 20:46 (спустя 14 минут)

[Q] 

519605Аршо Спилберг - брат Стивена Спилберга))) Пошутил однажды Гарик Мартиросян. Кому еще часто бросается в глаза что режиссеры наших фильмов армяне? Где этот армянский факультет режиссуры? Да ары народ ушлый, глядишь и в Голливуд скоро пролезут)))
О друг, спасибо, поддержал меня! А я то думал что у меня навязчивая идея по поводу обилия армянских режиссёров в фильмах последних нескольких лет. А оказывается что это не только у меня такие мысли. Нет, я не против. Пускай, может что дельное получится.
А вот по поводу Голливуда. Тут ведь такой вопрос скользкий. Диаспора у них во Франции очень сильная. Подобно тому, что в Испании каждый второй если не Гомес, то Педро. То во французском кинематографе каждый третий если не Хачикян, то Мартиросян. Может конечно под псевдонимами, типа Бельмондо играют. Но суть то у них одна. А если так, то вполне может быть что они напишут родственникам письмо на историческую родину, те продадут немного цветов и яблок, и сами сделают им Арменовуд.
Но вот по поводу этого фильма, то я бы прямо не совсем в восторге. Какой-то он вялотекущий и предсказуемый. Мне даже напомнило чем-то "Приключения янки в Армении". Ну что-то из того фильма "душком" пахнуло.
ИМХО.
[Профиль]  [ЛС] 

AirPower

Морской Волк

Пост 08-Апр-2014 23:53 (спустя 3 часа)

[Q] 

Я понимаю вы бы парились о национальности режиссера, когда бы он на ваши деньги снимал, а так то пусть спонсор парится, а вы пишите по теме кино!
[Профиль]  [ЛС] 

Jek@

Легенда

Пост 09-Апр-2014 08:29 (спустя 8 часов)

[Q] 

Спасибо!!! .
[Профиль]  [ЛС] 

Ромиго

Лоцман

Пост 09-Апр-2014 16:05 (спустя 7 часов)

[Q] 

Арменовуд.
[Профиль]  [ЛС] 

Танюха10988

Гроза морей

Пост 09-Апр-2014 23:29 (спустя 7 часов)

[Q] 

Спасибо!!!
[Профиль]  [ЛС] 

serded74

Морской Волк

Пост 10-Апр-2014 13:32 (спустя 14 часов)

[Q] 

Раздающему респект! Пиратка рулез!!! поглядим
[Профиль]  [ЛС] 

KoSkud

Флибустьер

Пост 11-Апр-2014 09:39 (спустя 20 часов)

[Q] 

ну армяне и армяне,что тут такого? вот когда цыгане начнут снимать,тогда забавно будет )) посмотрим в общем,что за кино.Если впечатлит-обязательно отпишусь.За релиз спасибо

_________________
Учись-играя,играя-учись
[Профиль]  [ЛС] 

yury100

Шкипер

Пост 11-Апр-2014 14:10 (спустя 4 часа)

[Q] 

Жалкая пародия на Скалолаза
[Профиль]  [ЛС] 

мешок66

Морской Волк

Пост 16-Апр-2014 18:15 (спустя 5 дней)

[Q] 

хватит переснимать америкосов снимите свое!!! Отказать
[Профиль]  [ЛС] 

Vintorezov REG 39

Легенда

176

Пост 23-Ноя-2014 19:12 (спустя 7 месяцев 7 дней)

[Q] 

Да уж фильм так себе. На любителя
[Профиль]  [ЛС] 

Scorpion7474

Флибустьер

Пост 24-Ноя-2014 14:07 (спустя 18 часов)

[Q] 

Автору респект!!!
[Профиль]  [ЛС] 
Показать сообщения:    
Ответить на тему

Текущее время: Сегодня 20:20

Часовой пояс: GMT + 4



Вы не можете начинать темы
Вы не можете отвечать на сообщения
Вы не можете редактировать свои сообщения
Вы не можете удалять свои сообщения
Вы не можете голосовать в опросах
Вы не можете прикреплять файлы к сообщениям
Вы не можете скачивать файлы

▼ Вниз