ML
     
  Уважаемый Гость!
Вы можете поддержать проект и зарегистрироваться у наших партнеров - онлайн-стратегия MyLands. При регистрации в игре Вы получите код, который сможете активировать после регистрации на pirat.ca и получить 1000 дублонов.

Ваш код:
2a3da67fd641d69eeebb7cb965232435a70eaa24
 
     

Восток-Запад (Режис Варнье / Regis Wargnier) [1999 г., драма, мелодрама, история, DVDRip]

Ответить на тему
 
Автор
Сообщение

Пост 09-Апр-2014 09:29

[Q] 

AnastasWolf

-Восток-Запад-- Производство: Россия, Франция, Испания, Украина, Болгария
Режиссер: Режис Варнье / Regis Wargnier
Жанр: драма, мелодрама, история
Год выпуска: 1999 г.
Продолжительность: 01:59:45
Мировая премьера: 4 августа 1999
Российская премьера: 7 апреля 2000, «Мост-Синематограф»
Дата выхода DVD: 25 сентября 2008, «Мьюзик-Трейд»
В ролях: Caндpин Бoннэp, Oлeг Meньшикoв, Cepгeй Бoдpoв-мл., Кaтpин Дeнёв, Pубeн Tупиepo, Эpвaн Бaйнo, Гpигopий Maнукoв, Taтьянa Дoгилeвa, Бoгдaн Cтупкa, Meглeнa Кapaлaмбoвa, Aтaнac Aтaнacoв, Taня Maccaлитинoвa, Фpaнcуa Кapoн, Вaлeнтин Гaнeв, Hикoлaй Винeв, Peнe Фepe, Дaниэль Mapтин, Юбep Ceн-Maкapи, Жopиc Кaзaнoвa, Жoэль Шaпpoн, Mapия Вepди, Ивaн Caвoв, Aлeкcaндp Cтoляpчук-Описание: Mopeм, нa нapяднoм тeплoxoдe, пpибывaeт в CCCP пocлe Bтopoй Mиpoвoй вoйны ceмья pyccкoгo эмигpaнтa Aлeкceя Гoлoвинa. Уcпeшный вpaч c жeнoй-фpaнцyжeнкoй и cынoм eдeт нa poдинy, иcпoлнeнный нaдeжд. Cpeди мнoгиx дpyгиx эмигpaнтoв, пoкинyвшиx Poccию пocлe peвoлюции, oн вoзвpaщaeтcя нe в cтpaнy пoбeдившиx бoльшeвикoв, a в cтpaнy, пoбeдившyю фaшизм. Пpивлeчённыe cтaлинcкoй пpoпaгaндoй, бывшиe эмигpaнты гoтoвы пoвepить, чтo peпpeccии тpидцaтыx гoдoв cтaли yжe иcтopиeй, и чтo пocлe вoйны oни cмoгyт cвoбoднo жить нa жeлaннoй poдинe. Ho нaдeжды pyшaтcя cpaзy. C тpaпa кopaбля Aлeкceй Гoлoвин и eгo жeнa Mapи видят вoopyжённыx людeй, гoтoвыx oткpыть oгoнь в любoй мoмeнт. Tяжёлыe paзoчapoвaния cлeдyют для Mapи oднo зa дpyгим. Oкaзывaeтcя, чтo дoлгoждaннaя poдинa oчeнь пoxoжa нa киeвcкyю кoммyнaлкy, кyдa пoceлили ceмью фpaнцyзcкoгo вpaчa. Eё oбитaтeли живyт в aтмocфepe cтpaxa и взaимнoй cлeжки. Иcкpeнниe чeлoвeчecкиe oтнoшeния вcтpeчaютcя здecь кaк иcключитeльнaя peдкocть.-КиноПоиск
Качество видео: DVDRip
Контейнер: AVI
Видео кодек: XviD
Аудио кодек: AC3
Видео: 720x392 (1.85:1), 1579 kbps, 25 fps, 0.224 bit/pixel
Аудио: 448 kbps, 3/2 (L,C,R,l,r) + LFE ch, 48 kHz
Cубтитры: русские
Формат субтитров: hardsub (неотключаемые, на французскую речь)
Общее
Полное имя : Восток-Запад.1999.[DVDRip].avi
Формат : AVI
Формат/Информация : Audio Video Interleave
Размер файла : 1,70 Гбайт
Продолжительность : 1 ч. 59 м.
Общий поток : 2036 Кбит/сек
Программа кодирования : VirtualDubMod 1.5.10.3 | (build 2550/release)
Видео
Идентификатор : 0
Формат : MPEG-4 Visual
Профиль формата : Advanced [email protected]
Параметр BVOP формата : 3
Параметр QPel формата : Нет
Параметр GMC формата : Без точки перехода
Параметр матрицы формата : Default (MPEG)
Идентификатор кодека : XVID
Идентификатор кодека/Подсказка : XviD
Продолжительность : 1 ч. 59 м.
Битрейт : 1579 Кбит/сек
Ширина : 720 пикселей
Высота : 392 пикселя
Соотношение сторон : 1,85:1
Частота кадров : 25,000 кадров/сек
Цветовое пространство : YUV
Субдискретизация насыщенности : 4:2:0
Битовая глубина : 8 бит
Тип развёртки : Прогрессивная
Метод сжатия : С потерями
Бит/(Пиксели*Кадры) : 0.224
Размер потока : 1,32 Гбайт (78%)
Библиотека кодирования : XviD 64
Аудио
Идентификатор : 1
Формат : AC-3
Формат/Информация : Audio Coding 3
Расширение режима : CM (complete main)
Параметр Endianness формата : Big
Идентификатор кодека : 2000
Продолжительность : 1 ч. 59 м.
Вид битрейта : Постоянный
Битрейт : 448 Кбит/сек
Каналы : 6 каналов
Расположение каналов : Front: L C R, Side: L R, LFE
Частота : 48,0 КГц
Битовая глубина : 16 бит
Метод сжатия : С потерями
Размер потока : 384 Мбайт (22%)
Выравнивание : Разделение по промежуткам
Продолжительность промежутка : 40 мс. (1,00 видеокадр)
Время предзагрузки промежутка : 500 мс.
Download / Скачать

Хотите скачать бесплатно? Зарегистрируйтесь на сайте (ссылка на регистрацию). Pirat.ca - самый быстрый торрент трекер в рунете!

Как скачивать  ·   Что такое торрент  ·   Рейтинг и ограничения

Пост 09-Апр-2014 19:43 (спустя 10 часов)

Топик был перенесен из форума Наше кино (Трюм) в форум Российские фильмы
kugesan
 

SSB

Шкипер

Пост 14-Сен-2014 17:52 (спустя 5 месяцев 5 дней)

[Q] 

Автору респект!!! Лови бочку качаю
[Профиль]  [ЛС] 
Показать сообщения:    
Ответить на тему

Текущее время: Сегодня 01:17

Часовой пояс: GMT + 4



Вы не можете начинать темы
Вы не можете отвечать на сообщения
Вы не можете редактировать свои сообщения
Вы не можете удалять свои сообщения
Вы не можете голосовать в опросах
Вы не можете прикреплять файлы к сообщениям
Вы не можете скачивать файлы

▼ Вниз