ML
     
  Уважаемый Гость!
Вы можете поддержать проект и зарегистрироваться у наших партнеров - онлайн-стратегия MyLands. При регистрации в игре Вы получите код, который сможете активировать после регистрации на pirat.ca и получить 1000 дублонов.

Ваш код:
59354507ba913a0948d1a8f2e30f2e04c4cd7b9b
 
     

Снегурочка (Дмитрий Светозаров) [2013 г., драма, мелодрама, триллер, DVDRip] (Лицензия)

Ответить на тему
 
Автор
Сообщение

Пост 09-Апр-2014 23:05

[Q] 

LPPI

-Снегурочка- Производство: Россия / АСДС
Жанр: драма, мелодрама, триллер
Год выпуска: 2013 г.
Продолжительность: 01:44:11
Российская премьера: 28 января 2014, «Proline-медиа»
Дата выхода DVD: 11 марта 2014, «CD Land»-Режиссер: Дмитрий Светозаров
В ролях: Анна Хилькевич, Валерий Дегтярь, Евгений Катаев, Алиса Миронова, Ирина Полянская, Даниил Ануфриев, Сергей Мардарь, Рудольф Фурманов, Лев Елисеев, Вадим Лобанов-Описание: В одночасье испарилось и потеряло цену все, к чему стремился и чего достиг за неполные сорок лет жизни Алексей Нечаев, руководитель, лауреат, профессор, член государственных комиссий, фондов, советов при президенте, включая дом и семью. Имя этому наваждению — запретная любовь. Влюбившись в девушку, годящуюся ему в дочери, внешне обаятельную, по-детски дурашливую и наивную, главный герой, сам того не замечая, медленно разрушает свою жизнь…-Сэмпл КиноПоиск-Качество видео: DVDRip
Контейнер: AVI
Видео кодек: XviD
Аудио кодек: AC3
Видео: 720x400 (1.80:1), 25 fps, XviD build 50 ~1548 kbps avg, 0.22 bit/pixel
Аудио: 48 kHz, AC3 Dolby Digital, 3/2 (L,C,R,l,r) + LFE ch, ~448 kbps
Cубтитры: отсутствуют
Код:
General
Complete name                            : D:\Snegyro4ka.2013.O.DVDRip.1.46Gb.avi
Format                                   : AVI
Format/Info                              : Audio Video Interleave
File size                                : 1.46 GiB
Duration                                 : 1h 44mn
Overall bit rate                         : 2 007 Kbps
Writing application                      : VirtualDubMod 1.5.10.3 | www.virtualdub-fr.org || (build 2550/release)
Writing library                          : VirtualDubMod build 2550/release
Video
ID                                       : 0
Format                                   : MPEG-4 Visual
Format profile                           : Advanced [email protected]
Format settings, BVOP                    : 2
Format settings, QPel                    : No
Format settings, GMC                     : No warppoints
Format settings, Matrix                  : Default (MPEG)
Codec ID                                 : XVID
Codec ID/Hint                            : XviD
Duration                                 : 1h 44mn
Bit rate                                 : 1 549 Kbps
Width                                    : 720 pixels
Height                                   : 400 pixels
Display aspect ratio                     : 16:9
Frame rate                               : 25.000 fps
Color space                              : YUV
Chroma subsampling                       : 4:2:0
Bit depth                                : 8 bits
Scan type                                : Progressive
Compression mode                         : Lossy
Bits/(Pixel*Frame)                       : 0.215
Stream size                              : 1.13 GiB (77%)
Writing library                          : XviD 1.2.1 (UTC 2008-12-04)
Audio
ID                                       : 1
Format                                   : AC-3
Format/Info                              : Audio Coding 3
Mode extension                           : CM (complete main)
Format settings, Endianness              : Big
Codec ID                                 : 2000
Duration                                 : 1h 44mn
Bit rate mode                            : Constant
Bit rate                                 : 448 Kbps
Channel(s)                               : 6 channels
Channel positions                        : Front: L C R, Side: L R, LFE
Sampling rate                            : 48.0 KHz
Bit depth                                : 16 bits
Compression mode                         : Lossy
Stream size                              : 334 MiB (22%)
Alignment                                : Split accross interleaves
Interleave, duration                     : 40 ms (1.00 video frame)
Interleave, preload duration             : 500 ms
Download / Скачать

Хотите скачать бесплатно? Зарегистрируйтесь на сайте (ссылка на регистрацию). Pirat.ca - самый быстрый торрент трекер в рунете!

Как скачивать  ·   Что такое торрент  ·   Рейтинг и ограничения

Пост 10-Апр-2014 10:53 (спустя 11 часов)

Топик был перенесен из форума Наше кино (Трюм) в форум Новинки (HD|DVD|BD| TV|SAT|PDTV| - Rips)
kugesan
 

Urlhtml

Корсар

Пост 10-Апр-2014 10:55 (спустя 11 часов)

[Q] 

Спасибо!!! Пиратка рулез!!!
[Профиль]  [ЛС] 

serded74

Морской Волк

Пост 10-Апр-2014 13:28 (спустя 2 часа 32 минуты)

[Q] 

Спасибо. Пиратка рулез!!!
[Профиль]  [ЛС] 

ягжин

Гроза морей

Пост 10-Апр-2014 16:15 (спустя 2 часа 47 минут)

[Q] 

Скачаю для жены! Спасибо!!!
[Профиль]  [ЛС] 
Показать сообщения:    
Ответить на тему

Текущее время: Сегодня 16:09

Часовой пояс: GMT + 4



Вы не можете начинать темы
Вы не можете отвечать на сообщения
Вы не можете редактировать свои сообщения
Вы не можете удалять свои сообщения
Вы не можете голосовать в опросах
Вы не можете прикреплять файлы к сообщениям
Вы не можете скачивать файлы

▼ Вниз