ML
     
  Уважаемый Гость!
Вы можете поддержать проект и зарегистрироваться у наших партнеров - онлайн-стратегия MyLands. При регистрации в игре Вы получите код, который сможете активировать после регистрации на pirat.ca и получить 1000 дублонов.

Ваш код:
8b29d0f8cd61fe457e59e7df0aa1fab41a2b88b9
 
     

Тысяча двести десять (1210) (Арсений Гончуков) [2012 г., Остросюжетная драма, BDRip] "А-Гончуков"

Ответить на тему
 
Автор
Сообщение

Пост 18-Апр-2014 13:27

[Q] 

Resident

-Тысяча двести десять (1210)--«Равнодушие рождает чудовищ» Производство: Россия студия "А-Гончуков"
Режиссер: Арсений Гончуков
Жанр: Остросюжетная драма
Год выпуска: 2012 г.
Продолжительность: 01:12:57
Российская премьера: 25 октября 2012, «А-Гончуков»
В ролях: Роберт Вааб, Александр Сухинин, Виктор Немец, Юлия Дегтяренко, Александр Гавриков, Елизавета Лукьянова, Владимир Шинов, Артем Кобзев, Николай Бутенин, Елена Елесина-Описание: «1210» — это история про «маленького человека», который пытается добиться справедливости от государства. Но его попытки заранее обречены. Он — лишний, ненужный старик, против которого ополчилась даже его собственная семья. Обездоленному и обворованному ветерану войны, кажется, остается только сойти с ума. Но это еще вопрос — он безумен в этом «нормальном» мире или «нормальный» мир сошел с ума от равнодушия? В итоге, отчаявшийся старик решается на страшный поступок. Поступок, который вряд ли можно будет оправдать.- Качество видео: BDRip
Контейнер: AVI
Видео кодек: XviD
Аудио кодек: AC3
Видео: XviD, 2670 Кбит/с, 720x400, 25.000 fps, 0.371 bit / pix
Аудио: 48 kHz, AC3, 2 ch, 192 Кбит/с (Оригинальное)
Cубтитры: отсутствуют
Приз в номинации "Начало". Национальная премия "Страна", г. Москва, 2013 г.
- Фестиваль военно-патриотического кино "Волоколамский рубеж", Специальный приз жюри, г. Волоколамск, 2013 г.;
- Приз "Анне" фильму "1210" "За лучшее исполнение главной мужской роли". VI Чебоксарский международный кинофестиваль, г. Чебоксары, 2013 г.
- Приз Серебряный Жан-Люк "Маленький солдат" - за лучший фильм о войне". Четвертый международный фестиваль авторского кино "Киноликбез-4", г. Барнаул;
- Диплом "За лучшую премьеру в киноклубе "Трибуна". Департамент культуры г. Москва, ГБУК "Московское кино", г. Москва, 2012 г.;
General
Complete name : W:\1210.0.2012.BDRip.1500MB.avi.avi
Format : AVI
Format/Info : Audio Video Interleave
File size : 1.46 GiB
Duration : 1h 12mn
Overall bit rate : 2 872 Kbps
Writing application : VirtualDubMod 1.5.10.3 | (build 2550/release)
Writing library : VirtualDubMod build 2550/release
Video
ID : 0
Format : MPEG-4 Visual
Format profile : Advanced [email protected]
Format settings, BVOP : Yes
Format settings, QPel : No
Format settings, GMC : No warppoints
Format settings, Matrix : Default (H.263)
Codec ID : XVID
Codec ID/Hint : XviD
Duration : 1h 12mn
Bit rate : 2 670 Kbps
Width : 720 pixels
Height : 400 pixels
Display aspect ratio : 16:9
Frame rate : 25.000 fps
Color space : YUV
Chroma subsampling : 4:2:0
Bit depth : 8 bits
Scan type : Progressive
Bits/(Pixel*Frame) : 0.371
Stream size : 1.36 GiB (93%)
Writing library : XviD 1.2.1 (UTC 2008-12-04)
Audio
ID : 1
Format : AC-3
Format/Info : Audio Coding 3
Mode extension : CM (complete main)
Codec ID : 2000
Duration : 1h 12mn
Bit rate mode : Constant
Bit rate : 192 Kbps
Channel(s) : 2 channels
Channel positions : Front: L R
Sampling rate : 48.0 KHz
Bit depth : 16 bits
Stream size : 100 MiB (7%)
Alignment : Split accross interleaves
Interleave, duration : 40 ms (1.00 video frame)
Interleave, preload duration : 500 ms
Download / Скачать

Хотите скачать бесплатно? Зарегистрируйтесь на сайте (ссылка на регистрацию). Pirat.ca - самый быстрый торрент трекер в рунете!

Как скачивать  ·   Что такое торрент  ·   Рейтинг и ограничения

Пост 18-Апр-2014 16:58 (спустя 3 часа)

Топик был перенесен из форума Наше кино (Трюм) в форум Российские фильмы
kugesan
 
Показать сообщения:    
Ответить на тему

Текущее время: Сегодня 21:22

Часовой пояс: GMT + 4



Вы не можете начинать темы
Вы не можете отвечать на сообщения
Вы не можете редактировать свои сообщения
Вы не можете удалять свои сообщения
Вы не можете голосовать в опросах
Вы не можете прикреплять файлы к сообщениям
Вы не можете скачивать файлы

▼ Вниз