ML
     
  Уважаемый Гость!
Вы можете поддержать проект и зарегистрироваться у наших партнеров - онлайн-стратегия MyLands. При регистрации в игре Вы получите код, который сможете активировать после регистрации на pirat.ca и получить 1000 дублонов.

Ваш код:
8b29d0f8cd61fe457e59e7df0aa1fab41a2b88b9
 
     

В спорте только девушки (Евгений Невский) [2014 г., комедия, DVDRip] (Лицензия)

Ответить на тему
 
Автор
Сообщение

Пост 18-Апр-2014 23:39

[Q] 

LPPI

-В спорте только девушки- Производство: Россия / Среда Фетисов Филмс
Жанр: комедия
Год выпуска: 2014 г.
Продолжительность: 01:29:42
Российская премьера: 6 февраля 2014, «Централ Партнершип»
Дата выхода DVD: 7 апреля 2014, «Новый Диск»
Дата выхода Blu-Ray: 21 апреля 2014, «Новый Диск»-Режиссер: Евгений Невский
В ролях: Лянка Грыу, Александр Головин, Екатерина Вилкова, Илья Глинников, Александр Ведменский, Михаил Трухин, Алена Чехова, Алексей Золотовицкий, Дмитрий Мухамадеев, Татьяна Рыбинец-Описание: Женская сборная по сноуборду ведет подготовку к Играм и направляется в Сочи на тестовые соревнования. Переодевшись в девушек, к ним присоединяются три скрывающихся от погони сноубордиста-фрирайдера. По приезду в Сочи, эти герои фильма «В спорте только девушки» заводят знакомство со спортсменками-американками.-Сэмпл КиноПоиск-Качество видео: DVDRip
Контейнер: AVI
Видео кодек: XviD
Аудио кодек: AC3
Видео: 720x304 (2.37:1), 25 fps, XviD build 50 ~1902 kbps avg, 0.35 bit/pixel
Аудио: 48 kHz, AC3 Dolby Digital, 3/2 (L,C,R,l,r) + LFE ch, ~384 kbps
Cубтитры: отсутствуют
General
Complete name : C:\Users\Admin\Desktop\В.спорте.только.девушки.2014.DVDRip.avi
Format : AVI
Format/Info : Audio Video Interleave
File size : 1.44 GiB
Duration : 1h 29mn
Overall bit rate : 2 297 Kbps
Movie name : В спорте только девушки
Director : LPPI
Writing application : VirtualDubMod 1.5.10.2 (build 2540/release)
Video
ID : 0
Format : MPEG-4 Visual
Format profile : Advanced [email protected]
Format settings, BVOP : 2
Format settings, QPel : No
Format settings, GMC : No warppoints
Format settings, Matrix : Default (MPEG)
Codec ID : XVID
Codec ID/Hint : XviD
Duration : 1h 29mn
Bit rate : 1 903 Kbps
Width : 720 pixels
Height : 304 pixels
Display aspect ratio : 2.35:1
Frame rate : 25.000 fps
Color space : YUV
Chroma subsampling : 4:2:0
Bit depth : 8 bits
Scan type : Progressive
Compression mode : Lossy
Bits/(Pixel*Frame) : 0.348
Stream size : 1.19 GiB (83%)
Writing library : XviD 1.2.1 (UTC 2008-12-04)
Audio
ID : 1
Format : AC-3
Format/Info : Audio Coding 3
Mode extension : CM (complete main)
Format settings, Endianness : Big
Codec ID : 2000
Duration : 1h 29mn
Bit rate mode : Constant
Bit rate : 384 Kbps
Channel(s) : 6 channels
Channel positions : Front: L C R, Side: L R, LFE
Sampling rate : 48.0 KHz
Bit depth : 16 bits
Compression mode : Lossy
Stream size : 246 MiB (17%)
Alignment : Split accross interleaves
Interleave, duration : 40 ms (1.00 video frame)
Interleave, preload duration : 500 ms
Download / Скачать

Хотите скачать бесплатно? Зарегистрируйтесь на сайте (ссылка на регистрацию). Pirat.ca - самый быстрый торрент трекер в рунете!

Как скачивать  ·   Что такое торрент  ·   Рейтинг и ограничения



Последний раз редактировалось: LPPI (2014-04-20 16:50), всего редактировалось 3 раз(а)

Alingva

Гроза морей

18

Пост 19-Апр-2014 00:58 (спустя 1 час 19 минут)

[Q] 

Автору респект!!! а кнопки спасибо пока еще нет :-)

_________________
Если Вам кажется что у Вас нимб над головой, то не обращайте на него внимание - это просто мания величия!
На форуме  [Профиль]  [ЛС] 

Пост 20-Апр-2014 17:03 (спустя 1 день 16 часов)

Топик был перенесен из форума Наше кино (Трюм) в форум Новинки (HD|DVD|BD| TV|SAT|PDTV| - Rips)
erchine
 

diabolic

Шкипер

Пост 20-Апр-2014 17:08 (спустя 1 день 16 часов)

[Q] 

Спасибо!!! Посмотрим
[Профиль]  [ЛС] 

Znoi

Флибустьер

1163

Пост 20-Апр-2014 17:26 (спустя 18 минут)

[Q] 

Спасибо!!! за релиз
[Профиль]  [ЛС] 

kmv01

Гроза морей

Пост 21-Апр-2014 13:11 (спустя 19 часов)

[Q] 

Как фильм - стоит смотреть?
[Профиль]  [ЛС] 

Yrets

Флибустьер

159

Пост 24-Апр-2014 16:36 (спустя 3 дня)

[Q] 

Спасибо посмотрю на досуге...
[Профиль]  [ЛС] 

ленкf

Лоцман

Пост 26-Апр-2014 21:14 (спустя 2 дня 4 часа)

[Q] 

хороше кино , девчёнкам понравится)))) Мне понравилось
[Профиль]  [ЛС] 

Танюха10988

Гроза морей

Пост 26-Апр-2014 22:52 (спустя 1 час 38 минут)

[Q] 

Хорошее кино, Спасибо!!! Лови бочку
[Профиль]  [ЛС] 

Дэн

Флибустьер

Пост 26-Апр-2014 23:16 (спустя 23 минуты)

[Q] 

спасибо !
[Профиль]  [ЛС] 

ScorpioKZ

Шкипер

Пост 29-Апр-2014 14:15 (спустя 2 дня 14 часов)

[Q] 

Спасибо!!!
Автору респект!!!
[Профиль]  [ЛС] 

Gurimor

Шкипер

Пост 29-Апр-2014 19:34 (спустя 5 часов)

[Q] 

Неожиданно смешно.С удовольствием посмотрели Лови бочку
[Профиль]  [ЛС] 

Sagrado

Шкипер

Пост 29-Апр-2014 19:45 (спустя 11 минут)

[Q] 

Вот и посмотрим! Спасибо!!! Лови бочку

_________________
Кот, уснувший в стиральной машине, проснулся только на пятом круге, но уже на шестом выбился в лидеры, обогнав носки и лифчик
[Профиль]  [ЛС] 

Полтос

Флибустьер

Пост 03-Май-2014 01:31 (спустя 3 дня)

[Q] 

Я извиняюсь, но это весьма посредственная пародия на "В джазе только девушки". История притянута за уши. Лучше посмотреть оригинал. Неверующим - глянуть - один раз.
Зуб даю...

_________________
Первый закон Прапорщика: Всё что поднимаемо - относительно!)
[Профиль]  [ЛС] 

TUS7884

Флибустьер

Пост 03-Май-2014 02:23 (спустя 52 минуты)

[Q] 

херня На любителя Ну ты юморист...
[Профиль]  [ЛС] 

sonyps

Морской Волк

Пост 07-Май-2014 00:13 (спустя 3 дня)

[Q] 

Прикольное кино, на вечер не плохо Всем качать!!!
[Профиль]  [ЛС] 

perez666

Морской Волк

Пост 07-Май-2014 11:45 (спустя 11 часов)

[Q] 

помогу с раздачей
[Профиль]  [ЛС] 

BORT-747

Флибустьер

352

Пост 08-Май-2014 15:04 (спустя 1 день 3 часа)

[Q] 

Спасибо. фильм понравился.

_________________
[Профиль]  [ЛС] 

Litus21

Штурман

Пост 06-Июн-2014 02:49 (спустя 28 дней)

[Q] 

!COOL! Спасибо!!! посмотрим
[Профиль]  [ЛС] 
Показать сообщения:    
Ответить на тему

Текущее время: Сегодня 21:21

Часовой пояс: GMT + 4



Вы не можете начинать темы
Вы не можете отвечать на сообщения
Вы не можете редактировать свои сообщения
Вы не можете удалять свои сообщения
Вы не можете голосовать в опросах
Вы не можете прикреплять файлы к сообщениям
Вы не можете скачивать файлы

▼ Вниз