ML
     
  Уважаемый Гость!
Вы можете поддержать проект и зарегистрироваться у наших партнеров - онлайн-стратегия MyLands. При регистрации в игре Вы получите код, который сможете активировать после регистрации на pirat.ca и получить 1000 дублонов.

Ваш код:
ef8b3e8cd07bec918273586d22e5aaf18e0ae925
 
     

Прошлым летом в Чулимске (Виктор Демент) [2014 г., Мелодрама, SATRip]

Ответить на тему
 
Автор
Сообщение

Пост 19-Апр-2014 18:03

[Q] 

Resident

-Прошлым летом в Чулимске-- Производство: Россия
Режиссер: Виктор Демент
Жанр: Мелодрама
Год выпуска: 2014 г.
Продолжительность: 01:25:35
В ролях: Сергей Безруков, Мария Поезжаева, Анна Невская, Маргарита Шубина, Александр Самойленко-Описание: Валентина работает в местной чайной. Она влюблена в следователя Шаманова, сбежавшего из большого города после того, как попытался посадить за решётку сына высокопоставленного чиновника, сбившего человека, но потерпел поражение. Здесь Шаманов мечтает лишь о спокойной пенсии, не замечая, что Валентина влюблена в него. Её, в свою очередь, добиваются сын буфетчицы Павел и бухгалтер Мечеткин.-Сэмпл КиноПоиск
Качество видео: SATRip
Контейнер: AVI
Видео кодек: XviD
Аудио кодек: AC3
Видео: XviD, 2160 Кбит/с, 720x400, 25 fps, 0.301 bit / pix
Аудио: 48 kHz, MP3, 2 ch, 128 Кбит/с (Оригинальное)
Cубтитры: отсутствуют
Общее
Полное имя : W:\Proshlym.letom.v.Chulimske.2014.SATRip.avi
Формат : AVI
Формат/Информация : Audio Video Interleave
Размер файла : 1,38 Гбайт
Продолжительность : 1 ч. 25 м.
Общий поток : 2303 Кбит/сек
Программа кодирования : VirtualDubMod 1.5.10.3 | (build 2550/release)
Библиотека кодирования : VirtualDub build 35491/release
Видео
Идентификатор : 0
Формат : MPEG-4 Visual
Профиль формата : Advanced [email protected]
Параметр BVOP формата : 2
Параметр QPel формата : Нет
Параметр GMC формата : Без точки перехода
Параметр матрицы формата : Default (H.263)
Идентификатор кодека : XVID
Идентификатор кодека/Подсказка : XviD
Продолжительность : 1 ч. 25 м.
Битрейт : 2165 Кбит/сек
Ширина : 720 пикс.
Высота : 400 пикс.
Соотношение сторон : 16:9
Частота кадров : 25,000 кадр/сек
Цветовое пространство : YUV
Подвыборка цветности : 4:2:0
Битовая глубина : 8 бит
Тип развёртки : Прогрессивная
Метод сжатия : С потерями
Бит/(Пиксели*Кадры) : 0.301
Размер потока : 1,29 Гбайт (94%)
Библиотека кодирования : XviD 1.2.1 (UTC 2008-12-04)
Аудио
Идентификатор : 1
Формат : MPEG Audio
Версия формата : Version 1
Профиль формата : Layer 3
Режим : Joint stereo
Расширение режима : MS Stereo
Идентификатор кодека : 55
Идентификатор кодека/Подсказка : MP3
Продолжительность : 1 ч. 25 м.
Вид битрейта : Постоянный
Битрейт : 128 Кбит/сек
Канал(ы) : 2 канала(ов)
Частота : 48,0 КГц
Метод сжатия : С потерями
Размер потока : 78,4 Мбайт (6%)
Выравнивание : Соединение по промежуткам
Продолжительность промежутка : 40 мс. (1,00 видеокадр)
Время предзагрузки промежутка : 504 ms
Библиотека кодирования : LAME3.99r
Настройки программы : -m j -V 4 -q 9 -lowpass 17 -b 128
Download / Скачать

Хотите скачать бесплатно? Зарегистрируйтесь на сайте (ссылка на регистрацию). Pirat.ca - самый быстрый торрент трекер в рунете!

Как скачивать  ·   Что такое торрент  ·   Рейтинг и ограничения

Пост 19-Апр-2014 19:14 (спустя 1 час 10 минут)

Топик был перенесен из форума Наше кино (Трюм) в форум Новинки (HD|DVD|BD| TV|SAT|PDTV| - Rips)
kugesan
 

mash8055

Штурман

Пост 19-Апр-2014 20:05 (спустя 2 часа 2 минуты)

[Q] 

вторая пьеса, после Гоголевской - Женитьбы.
[Профиль]  [ЛС] 

Urlhtml

Корсар

Пост 20-Апр-2014 00:22 (спустя 4 часа)

[Q] 

На любителя Супер!
[Профиль]  [ЛС] 

EvilPuzatik

Корсар

Пост 20-Апр-2014 20:34 (спустя 20 часов)

[Q] 

Саша Белый, какого?))

_________________
[Профиль]  [ЛС] 

Svetajan

Боцман

Пост 20-Апр-2014 21:43 (спустя 1 час 9 минут)

[Q] 

Вампилов? Не помню такого.
[Профиль]  [ЛС] 

mash8055

Штурман

Пост 22-Апр-2014 08:50 (спустя 1 день 11 часов)

[Q] 

пьесу убили, режиссер бездарь, актеры играют отвратительно, не смотреть! Раздающий не при делах ему спасибо.
[Профиль]  [ЛС] 

sbr

Штурман

Пост 22-Апр-2014 16:55 (спустя 8 часов)

[Q] 

lol И тут безрукий
[Профиль]  [ЛС] 

kudrjavy

Флибустьер

Пост 22-Апр-2014 23:04 (спустя 6 часов)

[Q] 

Безруков все испортил????((((((

_________________
Девушки-как печеньки: ломаются,пока не намокнут...
[Профиль]  [ЛС] 

romik777

Лоцман

Пост 24-Апр-2014 19:17 (спустя 1 день 20 часов)

[Q] 

Безруковжжот
чо уже никуда не берут?

_________________
Страшнее дурака-только дурак с инициативой...
[Профиль]  [ЛС] 

Vintorezov REG 39

Легенда

176

Пост 11-Окт-2014 18:11 (спустя 5 месяцев 16 дней)

[Q] 

Посмотрел так себе фильм На любителя
[Профиль]  [ЛС] 
Показать сообщения:    
Ответить на тему

Текущее время: Сегодня 18:39

Часовой пояс: GMT + 4



Вы не можете начинать темы
Вы не можете отвечать на сообщения
Вы не можете редактировать свои сообщения
Вы не можете удалять свои сообщения
Вы не можете голосовать в опросах
Вы не можете прикреплять файлы к сообщениям
Вы не можете скачивать файлы

▼ Вниз