ML
     
  Уважаемый Гость!
Вы можете поддержать проект и зарегистрироваться у наших партнеров - онлайн-стратегия MyLands. При регистрации в игре Вы получите код, который сможете активировать после регистрации на pirat.ca и получить 1000 дублонов.

Ваш код:
bb0cb47ee786a33f751af5a500dd264c9487bfac
 
     

Питер. Лето. Любовь (Андрей Хвостов) [2014 г., драма, мелодрама, WEB-DL]

Ответить на тему
 
Автор
Сообщение

Пост 24-Апр-2014 08:59

[Q] 

LPPI

-Питер. Лето. Любовь-«Белые ночи. Грязные танцы»- Производство: Россия, Великобритания, Bear in Mind Films, Curb Denizen
Жанр: драма, мелодрама
Год выпуска: 2014 г.
Продолжительность: 01:19:40
Российская премьера: 3 апреля 2014, «Экспонента»
Дата выхода DVD: 13 мая 2014, «CD Land»-Режиссер: Андрей Хвостов
В ролях: Терри Суини, Надежда Толубеева, Константин Малышев, Леонид Мозговой, Джонатан Бенда, Катрин МакДонаф, Алессандра Джунтини, Николай Куглянт, Екатерина Тарасова, Елена Симонова-Описание: Двадцатипятилетний британец Эллиот, бросивший преподавание в школе танцев Оксфорда, решает кардинально изменить свою жизнь. Он отправляется в Санкт-Петербург, где живет его сводный брат Федор, с которым он никогда не виделся.
В Питере Эллиот начинает обучать танцам девушку Федора Аню, которая собирается поступать в Театральную академию. У Эллиота есть неделя, чтобы научить танцам подругу брата и разобраться с собственными чувствами к ней.-Сэмпл КиноПоиск-Качество видео: WEB-DL
Контейнер: AVI
Видео кодек: XviD
Аудио кодек: AC3
Видео: 720x320 (2.25:1), 25 fps, XviD build 50 ~1997 kbps avg, 0.35 bit/pixel
Аудио: 48 kHz, AC3 Dolby Digital, 2/0 (L,R) ch, ~448 kbps
Cубтитры: отсутствуют
General
Complete name : D:\P1ter.Lrt0.L0ve.2014.O.WEBRip.1400Mb.avi
Format : AVI
Format/Info : Audio Video Interleave
File size : 1.37 GiB
Duration : 1h 19mn
Overall bit rate : 2 456 Kbps
Writing application : VirtualDubMod 1.5.10.2 (build 2540/release)
Writing library : VirtualDubMod build 2540/release
Video
ID : 0
Format : MPEG-4 Visual
Format profile : Advanced [email protected]
Format settings, BVOP : 2
Format settings, QPel : No
Format settings, GMC : No warppoints
Format settings, Matrix : Custom
Codec ID : XVID
Codec ID/Hint : XviD
Duration : 1h 19mn
Bit rate : 1 998 Kbps
Width : 720 pixels
Height : 320 pixels
Display aspect ratio : 2.25:1
Frame rate : 25.000 fps
Color space : YUV
Chroma subsampling : 4:2:0
Bit depth : 8 bits
Scan type : Progressive
Compression mode : Lossy
Bits/(Pixel*Frame) : 0.347
Stream size : 1.11 GiB (81%)
Writing library : XviD 1.2.1 (UTC 2008-12-04)
Audio
ID : 1
Format : AC-3
Format/Info : Audio Coding 3
Mode extension : CM (complete main)
Format settings, Endianness : Big
Codec ID : 2000
Duration : 1h 19mn
Bit rate mode : Constant
Bit rate : 448 Kbps
Channel(s) : 2 channels
Channel positions : Front: L R
Sampling rate : 48.0 KHz
Bit depth : 16 bits
Compression mode : Lossy
Stream size : 255 MiB (18%)
Alignment : Split accross interleaves
Interleave, duration : 40 ms (1.00 video frame)
Interleave, preload duration : 500 ms
Download / Скачать

Хотите скачать бесплатно? Зарегистрируйтесь на сайте (ссылка на регистрацию). Pirat.ca - самый быстрый торрент трекер в рунете!

Как скачивать  ·   Что такое торрент  ·   Рейтинг и ограничения

vovan200976

Флибустьер

Пост 24-Апр-2014 09:33 (спустя 33 минуты)

[Q] 

:47 спасибо
[Профиль]  [ЛС] 

Пост 24-Апр-2014 12:17 (спустя 2 часа 44 минуты)

Топик был перенесен из форума Наше кино (Трюм) в форум Новинки (HD|DVD|BD| TV|SAT|PDTV| - Rips)
kugesan
 

maximka2006

Морской Волк

Пост 24-Апр-2014 23:09 (спустя 13 часов)

[Q] 

Пасиб, глянем!
[Профиль]  [ЛС] 

gdanskiy

Лоцман

Пост 24-Апр-2014 23:14 (спустя 4 минуты)

[Q] 

глянем и оценим какой
[Профиль]  [ЛС] 

Skala973

Корсар

Пост 25-Апр-2014 16:58 (спустя 17 часов)

[Q] 

А что? Неплохой ведь фильмец. Ну так, на разок посмотреть можно. Ни что так не радует, как реализьм. А тут нет такой вот слащавой наигранности. Всё вполне на уровне.
Если есть что сказать - говорят, нет места для слов, то актёры молчат. Хотя конечно поэтому и диалогов в фильме не очень много.
Ничего, смотреть можно.
[Профиль]  [ЛС] 

KoSkud

Флибустьер

Пост 25-Апр-2014 18:42 (спустя 1 час 44 минуты)

[Q] 

Великобритания,Россия...ну посмотрим,что за "грязные танцы" у них получились )) спасибо

_________________
Учись-играя,играя-учись
[Профиль]  [ЛС] 

ягжин

Гроза морей

Пост 25-Апр-2014 21:15 (спустя 2 часа 32 минуты)

[Q] 

Ну, жена попросила, а это святое! Посмотрю и сам!!! Спасибо!!!
[Профиль]  [ЛС] 

litvig

Морской Волк

Пост 25-Апр-2014 22:41 (спустя 1 час 25 минут)

[Q] 

видел трейлер, вроде ничего Автору респект!!!
[Профиль]  [ЛС] 

Дэн

Флибустьер

Пост 27-Апр-2014 15:38 (спустя 1 день 16 часов)

[Q] 

спасибо !
[Профиль]  [ЛС] 

Depressor

Флибустьер

Пост 01-Май-2014 18:50 (спустя 4 дня)

[Q] 

прочитал: питер, лего, любовь

_________________
[Профиль]  [ЛС] 

uma_turman

Штурман

Пост 01-Май-2014 19:08 (спустя 17 минут)

[Q] 

ну кто скажет как фильмец
[Профиль]  [ЛС] 

Дмитров

Морской Волк

Пост 01-Май-2014 21:16 (спустя 2 часа 8 минут)

[Q] 

Больше 10 минут не выдержал...
[Профиль]  [ЛС] 

SlovA

Лоцман

Пост 22-Апр-2015 13:14 (спустя 11 месяцев 20 дней)

[Q] 

Трафик потрачен зря! Не качайте! Зря потратила время
[Профиль]  [ЛС] 
Показать сообщения:    
Ответить на тему

Текущее время: Сегодня 02:23

Часовой пояс: GMT + 4



Вы не можете начинать темы
Вы не можете отвечать на сообщения
Вы не можете редактировать свои сообщения
Вы не можете удалять свои сообщения
Вы не можете голосовать в опросах
Вы не можете прикреплять файлы к сообщениям
Вы не можете скачивать файлы

▼ Вниз