ML
     
  Уважаемый Гость!
Вы можете поддержать проект и зарегистрироваться у наших партнеров - онлайн-стратегия MyLands. При регистрации в игре Вы получите код, который сможете активировать после регистрации на pirat.ca и получить 1000 дублонов.

Ваш код:
1a5b0a965618b2c406d4279ec9924ee6282c60cf
 
     

Тёмный мир: Равновесие (Олег Асадулин) [2013 г., фэнтези, приключения, DVDRip] (Лицензия)

Ответить на тему
 
Автор
Сообщение

Пост 24-Апр-2014 09:31

[Q] 

LPPI

-Тёмный мир: Равновесие-«Скоро твой мир изменится»- Производство: Россия / Централ Партнершип
Жанр: фэнтези, приключения
Год выпуска: 2013 г.
Продолжительность: 01:31:22
Российская премьера: 5 декабря 2013, «Централ Партнершип»
Дата выхода DVD: 17 апреля 2014, «CD Land»-Режиссер: Олег Асадулин
В ролях: Мария Пирогова, Павел Прилучный, Макар Запорожский, Валерия Ланская, Евгения Брик (Хиривская), Александр Ратников, Владислав Абашин, Пётр Семак, Алиса Хазанова, Валерий Опёнкин-Описание: Каждый день они крадут твои силы, твои эмоции, твою любовь. Мы называем их Тени. Работа таких, как мы — доставлять их обратно в Тёмный мир. Надвигается катастрофа, и человечество может оказаться во власти тьмы…
И только мы можем сохранить равновесие.-Сэмпл КиноПоиск-Качество видео: DVDRip
Контейнер: AVI
Видео кодек: XviD
Аудио кодек: AC3
Видео: 720x400 (1.80:1), 25 fps, XviD build 73 ~1824 kbps avg, 0.25 bit/pixel
Аудио: 48 kHz, AC3 Dolby Digital, 3/2 (L,C,R,l,r) + LFE ch, ~448 kbps
Cубтитры: отсутствуют
General
Complete name : D:\Temnyi.mir.Ravnovesie.2013.DVDRip.avi
Format : AVI
Format/Info : Audio Video Interleave
File size : 1.46 GiB
Duration : 1h 31mn
Overall bit rate : 2 282 Kbps
Writing application : VirtualDubMod 1.5.10.3 | www.virtualdub-fr.org || (build 2550/release)
Writing library : VirtualDubMod build 2550/release
Video
ID : 0
Format : MPEG-4 Visual
Format profile : Advanced [email protected]
Format settings, BVOP : 1
Format settings, QPel : No
Format settings, GMC : No warppoints
Format settings, Matrix : Custom
Codec ID : XVID
Codec ID/Hint : XviD
Duration : 1h 31mn
Bit rate : 1 825 Kbps
Width : 720 pixels
Height : 400 pixels
Display aspect ratio : 16:9
Frame rate : 25.000 fps
Color space : YUV
Chroma subsampling : 4:2:0
Bit depth : 8 bits
Scan type : Progressive
Compression mode : Lossy
Bits/(Pixel*Frame) : 0.253
Stream size : 1.16 GiB (80%)
Writing library : XviD 73
Audio
ID : 1
Format : AC-3
Format/Info : Audio Coding 3
Mode extension : CM (complete main)
Format settings, Endianness : Big
Codec ID : 2000
Duration : 1h 31mn
Bit rate mode : Constant
Bit rate : 448 Kbps
Channel(s) : 6 channels
Channel positions : Front: L C R, Side: L R, LFE
Sampling rate : 48.0 KHz
Bit depth : 16 bits
Compression mode : Lossy
Stream size : 293 MiB (20%)
Alignment : Split accross interleaves
Interleave, duration : 40 ms (1.00 video frame)
Interleave, preload duration : 500 ms
Download / Скачать

Хотите скачать бесплатно? Зарегистрируйтесь на сайте (ссылка на регистрацию). Pirat.ca - самый быстрый торрент трекер в рунете!

Как скачивать  ·   Что такое торрент  ·   Рейтинг и ограничения

Пост 24-Апр-2014 12:15 (спустя 2 часа 43 минуты)

Топик был перенесен из форума Наше кино (Трюм) в форум Новинки (HD|DVD|BD| TV|SAT|PDTV| - Rips)
kugesan
 

HEDGEHOG932

Корсар

Пост 24-Апр-2014 15:07 (спустя 5 часов)

[Q] 

спасибо раздающему!!!!!!!

_________________

[Профиль]  [ЛС] 

kocmoc35

Морской Волк

Пост 24-Апр-2014 15:38 (спустя 30 минут)

[Q] 

Спасибо ,посмотрим
[Профиль]  [ЛС] 

immortalseed

Шкипер

Пост 24-Апр-2014 16:22 (спустя 44 минуты)

[Q] 

как фильм, смотреть можно или треш какой то???
[Профиль]  [ЛС] 

Танюха10988

Гроза морей

Пост 24-Апр-2014 22:43 (спустя 6 часов)

[Q] 

Спасибо за фильм!
[Профиль]  [ЛС] 

olipov

Легенда

Пост 25-Апр-2014 00:10 (спустя 1 час 26 минут)

[Q] 

как фильм? стоит качать?
[Профиль]  [ЛС] 

Dimon777

Шкипер

Пост 25-Апр-2014 07:32 (спустя 7 часов)

[Q] 

Автору респект!!! спасибо
[Профиль]  [ЛС] 

malefik36

Морской Волк

Пост 25-Апр-2014 13:18 (спустя 5 часов)

[Q] 

боюсь что и этот фильм не выберется из болота российской псевдофантастики уровня Жо :(
[Профиль]  [ЛС] 

bolikgeko

Гроза морей

211

Пост 25-Апр-2014 17:53 (спустя 4 часа)

[Q] 

Спасибо!!! спасибо
[Профиль]  [ЛС] 

kinstintin

Гроза морей

Пост 25-Апр-2014 21:51 (спустя 3 часа)

[Q] 

Спасибо!!!
посмотрю
[Профиль]  [ЛС] 

Дэн

Флибустьер

Пост 27-Апр-2014 15:49 (спустя 1 день 17 часов)

[Q] 

спасибо !
[Профиль]  [ЛС] 

Начертатель

Корсар

Пост 27-Апр-2014 16:21 (спустя 31 минута)

[Q] 

тут дело рук "Михалкова", фильм баян, автору за старание бочку

_________________
Rival
[Профиль]  [ЛС] 

Александр83

Штурман

Пост 27-Апр-2014 19:04 (спустя 2 часа 43 минуты)

[Q] 

Дерьмо кино.
[Профиль]  [ЛС] 

alecs250278

Штурман

Пост 29-Апр-2014 01:36 (спустя 1 день 6 часов)

[Q] 

уже наверное полгода назад выкладывали !!!!!
[Профиль]  [ЛС] 

Zetvelkras

Шкипер

Пост 04-Май-2014 12:06 (спустя 5 дней)

[Q] 

Спасибо, давно хочу посмотреть)))
[Профиль]  [ЛС] 

sonyps

Морской Волк

Пост 07-Май-2014 21:11 (спустя 3 дня)

[Q] 

Хорошая сказочка и эффекты. Учитывая, что это наше творение, то вообще супер!!! Но согласен, на один раз киношка. Всем качать!!!
[Профиль]  [ЛС] 

youfate

Корсар

Пост 10-Май-2014 15:46 (спустя 2 дня 18 часов)

[Q] 

Пиратка рулез!!! Раздающему респект!
[Профиль]  [ЛС] 

viewpoint

Шкипер

28

Пост 27-Июн-2014 23:24 (спустя 1 месяц 17 дней)

[Q] 

Не понравилось.
Учитывая, что это наше творение, то вообще супер!!!
не наше это и не творение вовсе, а продукт.
Раздающему за труды спасибо.
[Профиль]  [ЛС] 
Показать сообщения:    
Ответить на тему

Текущее время: Сегодня 23:52

Часовой пояс: GMT + 4



Вы не можете начинать темы
Вы не можете отвечать на сообщения
Вы не можете редактировать свои сообщения
Вы не можете удалять свои сообщения
Вы не можете голосовать в опросах
Вы не можете прикреплять файлы к сообщениям
Вы не можете скачивать файлы

▼ Вниз