ML
     
  Уважаемый Гость!
Вы можете поддержать проект и зарегистрироваться у наших партнеров - онлайн-стратегия MyLands. При регистрации в игре Вы получите код, который сможете активировать после регистрации на pirat.ca и получить 1000 дублонов.

Ваш код:
aec9a4a936117fb450ba69e519991a0465404b1d
 
     

Стартап (Евгений Ткачук) [2014 г., Биография, драма, WEB-DLRip]

Ответить на тему
 
Автор
Сообщение

Пост 25-Апр-2014 22:05

[Q] 

Resident

-Стартап--«Поиск мечты» Производство: Россия Данаис Фильм
Режиссер: Евгений Ткачук
Жанр: Биография, драма
Год выпуска: 2014 г.
Продолжительность: 01:26:08
Российская премьера: 3 апреля 2014, «Парадиз»
Дата выхода DVD: 27 мая 2014, «Парадиз / Активижен»
В ролях: Евгений Ткачук, Шамиль Хаматов, Иева Андреевайте, Семен Морозов, Эммануил Виторган, Андрей Соколов, Дмитрий Богдан, Вера Панфилова, Антон Шурцов, Андрей Назимов-Описание: Как в России честно заработать своим умом? Как добиться успеха и утвердить свое имя в мире бизнеса? Чем жертвует и что приобретает человек, который много лет стремится к своей цели? История создания с нуля крупного российского поискового портала. 20 лет риска, трудов, надежды, 20 лет дружбы…-
Качество видео: WEB-DLRip
Контейнер: AVI
Видео кодек: XviD
Аудио кодек: AC3
Видео: 704x320 (2.20:1), 25 fps, XviD build 50 ~1880 kbps avg, 0.33 bit/pixel
Аудио: 48 kHz, AC3 Dolby Digital, 3/2 (L,C,R,l,r) + LFE ch, ~384 kbps (Оригинальное)
Cубтитры: отсутствуют
General
Complete name : W:\Statap.2014.O.WEB-DLRip.1400MB.avi
Format : AVI
Format/Info : Audio Video Interleave
File size : 1.37 GiB
Duration : 1h 26mn
Overall bit rate : 2 274 Kbps
Writing application : VirtualDubMod 1.5.10.3| (build 2550/release)
Writing library : VirtualDubMod build 2550/release
Video
ID : 0
Format : MPEG-4 Visual
Format profile : Advanced [email protected]
Format settings, BVOP : Yes
Format settings, QPel : No
Format settings, GMC : No warppoints
Format settings, Matrix : Default (MPEG)
Codec ID : XVID
Codec ID/Hint : XviD
Duration : 1h 26mn
Bit rate : 1 880 Kbps
Width : 704 pixels
Height : 320 pixels
Display aspect ratio : 2.2:1
Frame rate : 25.000 fps
Color space : YUV
Chroma subsampling : 4:2:0
Bit depth : 8 bits
Scan type : Progressive
Bits/(Pixel*Frame) : 0.334
Stream size : 1.13 GiB (83%)
Writing library : XviD 1.2.1 (UTC 2008-12-04)
Audio
ID : 1
Format : AC-3
Format/Info : Audio Coding 3
Mode extension : CM (complete main)
Codec ID : 2000
Duration : 1h 26mn
Bit rate mode : Constant
Bit rate : 384 Kbps
Channel(s) : 6 channels
Channel positions : Front: L C R, Side: L R, LFE
Sampling rate : 48.0 KHz
Bit depth : 16 bits
Stream size : 236 MiB (17%)
Alignment : Split accross interleaves
Interleave, duration : 40 ms (1.00 video frame)
Interleave, preload duration : 500 ms
Download / Скачать

Хотите скачать бесплатно? Зарегистрируйтесь на сайте (ссылка на регистрацию). Pirat.ca - самый быстрый торрент трекер в рунете!

Как скачивать  ·   Что такое торрент  ·   Рейтинг и ограничения

litvig

Морской Волк

Пост 25-Апр-2014 22:34 (спустя 28 минут)

[Q] 

спасибо за раздачу Спасибо!!!
[Профиль]  [ЛС] 

Пост 25-Апр-2014 23:02 (спустя 27 минут)

Топик был перенесен из форума Наше кино (Трюм) в форум Новинки (HD|DVD|BD| TV|SAT|PDTV| - Rips)
kugesan
 

KoSkud

Флибустьер

Пост 26-Апр-2014 18:52 (спустя 20 часов)

[Q] 

про создание яндекса намекают что-ли? надо посмотреть

_________________
Учись-играя,играя-учись
[Профиль]  [ЛС] 

airat85

Корсар

Пост 26-Апр-2014 19:27 (спустя 35 минут)

[Q] 

fnx. very very good. Лови бочку
[Профиль]  [ЛС] 

Дэн

Флибустьер

Пост 27-Апр-2014 00:02 (спустя 4 часа)

[Q] 

.спасибо !
[Профиль]  [ЛС] 

Дмитров

Морской Волк

Пост 01-Май-2014 21:21 (спустя 4 дня)

[Q] 

Создатели стремились снять фильм на уровне про Джобса - не вышло.Хотя один раз можно глянуть.
[Профиль]  [ЛС] 

artt5

Штурман

Пост 02-Май-2014 17:08 (спустя 19 часов)

[Q] 

Идея не нова. Кто то оценит.
[Профиль]  [ЛС] 

Jek@

Легенда

Пост 03-Май-2014 12:37 (спустя 19 часов)

[Q] 

Спасибо!!! .
[Профиль]  [ЛС] 

Saevus

Корсар

Пост 03-Май-2014 12:43 (спустя 6 минут)

[Q] 

Неплохой фильм, хоть и на один раз. Без чернухи и лишней мишуры. Простенько так всё, смотрится легко. Вечер не потрачен зря az
[Профиль]  [ЛС] 

Vinyard

Корсар

Пост 03-Май-2014 13:16 (спустя 33 минуты)

[Q] 

Как фильм, господа-пираты? судя по отзывам очень скучен и банален, не биография, а сказка?
[Профиль]  [ЛС] 

sonyps

Морской Волк

Пост 07-Май-2014 21:20 (спустя 4 дня)

[Q] 

Люблю такие фильмы. Наш ответ Стиву Джобсу Всем качать!!!
[Профиль]  [ЛС] 

youfate

Корсар

Пост 10-Май-2014 15:44 (спустя 2 дня 18 часов)

[Q] 

!COOL! Пиратка рулит!
[Профиль]  [ЛС] 
Показать сообщения:    
Ответить на тему

Текущее время: Сегодня 02:25

Часовой пояс: GMT + 4



Вы не можете начинать темы
Вы не можете отвечать на сообщения
Вы не можете редактировать свои сообщения
Вы не можете удалять свои сообщения
Вы не можете голосовать в опросах
Вы не можете прикреплять файлы к сообщениям
Вы не можете скачивать файлы

▼ Вниз