ML
     
  Уважаемый Гость!
Вы можете поддержать проект и зарегистрироваться у наших партнеров - онлайн-стратегия MyLands. При регистрации в игре Вы получите код, который сможете активировать после регистрации на pirat.ca и получить 1000 дублонов.

Ваш код:
59354507ba913a0948d1a8f2e30f2e04c4cd7b9b
 
     

Тёмный мир: Равновесие (Олег Асадулин) [2013 г., фэнтези, приключения, DVDRip] [Лицензия]

Ответить на тему
 
Автор
Сообщение

Пост 30-Апр-2014 21:08

[Q] 

ara1205

-Тёмный мир: Равновесие-- Производство: Россия
Год выпуска: 2013 г.
Жанр: фэнтези, приключения
Продолжительность: 01:31:23
Российская премьера: 5 декабря 2013
Дата выхода DVD: 17 апреля 2014-Режиссер: Олег Асадулин-В ролях: Мария Пирогова, Павел Прилучный, Макар Запорожский, Евгения Брик, Александр Ратников, Владислав Абашин, Петр Семак, Алиса Хазанова, Валерий Опёнкин, Тимофей Носков-Описание: Каждый день они крадут твои силы, твои эмоции, твою любовь. Мы называем их Тени. Работа таких, как мы — доставлять их обратно в Тёмный мир. Надвигается катастрофа, и человечество может оказаться во власти тьмы…
И только мы можем сохранить равновесие.- -Качество видео: DVDRip
Контейнер: AVI
Видео кодек: XviD
Аудио кодек: MP3
Видео: 624x352 (16:9), 25.000 fps, 1000 Kbps
Аудио: 48.0 kHz, 128 Kbps, 2 ch
Cубтитры: отсутствуют-
Общее
Полное имя : C:\Users\Ромик\Pictures\Тёмный мир Равновесие\Temnyy.mir.Ravnovesie.2013.O.DVDRip.avi
Формат : AVI
Формат/Информация : Audio Video Interleave
Размер файла : 744 Мбайт
Продолжительность : 1 ч. 31 м.
Общий поток : 1138 Кбит/сек
Программа кодирования : VirtualDubMod 1.5.10.3 | www.virtualdub-fr.org || (build 2550/release)
Библиотека кодирования : VirtualDubMod build 2550/release
Видео
Идентификатор : 0
Формат : MPEG-4 Visual
Профиль формата : Advanced [email protected]
Параметр BVOP формата : 1
Параметр QPel формата : Нет
Параметр GMC формата : Без точки перехода
Параметр матрицы формата : Выборочная
Идентификатор кодека : XVID
Идентификатор кодека/Подсказка : XviD
Продолжительность : 1 ч. 31 м.
Битрейт : 1000 Кбит/сек
Ширина : 624 пикселя
Высота : 352 пикселя
Соотношение сторон : 16:9
Частота кадров : 25,000 кадров/сек
Цветовое пространство : YUV
Субдискретизация насыщенности : 4:2:0
Битовая глубина : 8 бит
Тип развёртки : Прогрессивная
Метод сжатия : С потерями
Бит/(Пиксели*Кадры) : 0.182
Размер потока : 654 Мбайт (88%)
Библиотека кодирования : XviD 73
Аудио
Идентификатор : 1
Формат : MPEG Audio
Версия формата : Version 1
Профиль формата : Layer 3
Идентификатор кодека : 55
Идентификатор кодека/Подсказка : MP3
Продолжительность : 1 ч. 31 м.
Вид битрейта : Постоянный
Битрейт : 128 Кбит/сек
Каналы : 2 канала
Частота : 48,0 КГц
Метод сжатия : С потерями
Размер потока : 83,7 Мбайт (11%)
Выравнивание : Соединение по промежуткам
Продолжительность промежутка : 40 мс. (1,00 видеокадр)
Время предзагрузки промежутка : 504 мс.
Библиотека кодирования : LAME3.99r
Настройки программы : -m s -V 4 -q 2 -lowpass 17 -b 128
-
-
-
Download / Скачать

Хотите скачать бесплатно? Зарегистрируйтесь на сайте (ссылка на регистрацию). Pirat.ca - самый быстрый торрент трекер в рунете!

Как скачивать  ·   Что такое торрент  ·   Рейтинг и ограничения

Serjio73

Лоцман

Пост 30-Апр-2014 21:53 (спустя 44 минуты)

[Q] 

глянем. !COOL!
[Профиль]  [ЛС] 

zvyagin_da

Пост 30-Апр-2014 22:17 (спустя 24 минуты)

[Q] 

Спасибо качаю
[Профиль]  [ЛС] 

ROSO

Шкипер

Пост 02-Май-2014 12:14 (спустя 1 день 13 часов)

[Q] 

неплохой фильм, посмотреть можно
[Профиль]  [ЛС] 

Gurimor

Шкипер

Пост 02-Май-2014 12:41 (спустя 26 минут)

[Q] 

Спасибо! Мне понравилось
[Профиль]  [ЛС] 

Vinyard

Корсар

Пост 03-Май-2014 13:31 (спустя 1 день)

[Q] 

спасибо. поддержу раздачу
[Профиль]  [ЛС] 

serded74

Морской Волк

Пост 04-Май-2014 23:10 (спустя 1 день 9 часов)

[Q] 

Разок посмотреть можно.
[Профиль]  [ЛС] 

zavroi

Штурман

Пост 05-Май-2014 02:49 (спустя 3 часа)

[Q] 

Мда, вот и до альмаматери добрались... ухх... не просчу... :-) а вообще на троечку...
За раздачу сенькс, спасибо то бишь...
[Профиль]  [ЛС] 

baltimor30

Морской Волк

Пост 05-Май-2014 11:30 (спустя 8 часов)

[Q] 

на один раз, не более
[Профиль]  [ЛС] 

sonyps

Морской Волк

Пост 07-Май-2014 21:07 (спустя 2 дня 9 часов)

[Q] 

Хорошая сказочка и эффекты. Учитывая, что это наше творение, то вообще супер!!! Но согласен, на один раз киношка.
[Профиль]  [ЛС] 

kmv01

Гроза морей

Пост 17-Май-2014 18:58 (спустя 9 дней)

[Q] 

Этот фильм и сериал, что сейчас по ТВ идет - это разные вещи?
[Профиль]  [ЛС] 

Полтос

Флибустьер

Пост 17-Май-2014 21:50 (спустя 2 часа 51 минута)

[Q] 

Ну чтож, совсем неплохо. Гораздо лучше "Дневных позоров"))). Любителям всяких там супер героев посвящается...

_________________
Первый закон Прапорщика: Всё что поднимаемо - относительно!)
[Профиль]  [ЛС] 

kmv01

Гроза морей

Пост 19-Май-2014 14:34 (спустя 1 день 16 часов)

[Q] 

Получается этот фильм - краткое содержание сериала!
[Профиль]  [ЛС] 

Alekc-rus

Морской Волк

Пост 19-Май-2014 14:54 (спустя 20 минут)

[Q] 

Поддержу kmv01
[Профиль]  [ЛС] 

Jek@

Легенда

Пост 22-Май-2014 13:37 (спустя 2 дня 22 часа)

[Q] 

Спасибо!!! .
[Профиль]  [ЛС] 

joint_

Штурман

Пост 22-Май-2014 20:54 (спустя 7 часов)

[Q] 

пробовал смотреть в камрипе не осилил посмотрю в норм качестве.
Спасибо!!!
[Профиль]  [ЛС] 

ulquiorra

Шкипер

Пост 23-Май-2014 12:58 (спустя 16 часов)

[Q] 

Отказать шлак. а не фильм
[Профиль]  [ЛС] 

Jafar

Шкипер

Пост 25-Май-2014 23:40 (спустя 2 дня 10 часов)

[Q] 

Фильм выжимка из сериала, лучше сериал посмотрите.
[Профиль]  [ЛС] 
Показать сообщения:    
Ответить на тему

Текущее время: Сегодня 16:06

Часовой пояс: GMT + 4



Вы не можете начинать темы
Вы не можете отвечать на сообщения
Вы не можете редактировать свои сообщения
Вы не можете удалять свои сообщения
Вы не можете голосовать в опросах
Вы не можете прикреплять файлы к сообщениям
Вы не можете скачивать файлы

▼ Вниз