ML
     
  Уважаемый Гость!
Вы можете поддержать проект и зарегистрироваться у наших партнеров - онлайн-стратегия MyLands. При регистрации в игре Вы получите код, который сможете активировать после регистрации на pirat.ca и получить 1000 дублонов.

Ваш код:
dbd0d701284cde74a1f34d06ce20b7bc75a73e75
 
     

Спираль (Андрей Волгин) [2013 г., боевик, HDRip] «Lizard Cinema Trade»

Ответить на тему
 
Автор
Сообщение

Пост 01-Май-2014 13:27

[Q] 

Resident

-Спираль--«Игра бесконечна…» Производство: Россия студия «Питон»
Режиссер: Андрей Волгин
Жанр: боевик
Год выпуска: 2013 г.
Продолжительность: 01:37:40
Российская премьера: 27 февраля 2014, «Кинография»
Дата выхода DVD: 29 апреля 2014, «Lizard Cinema Trade»,
Дата выхода Blu-Ray: 29 апреля 2014, «Lizard Cinema Trade»,-В ролях: Константин Крюков, Анатолий Руденко, Вениамин Смехов, Александр Яцко, Никита Высоцкий, Кларисса Барская, Константин Глушков, Владимир Стержаков, Марина Куделинская, Рената Пиотровски-Описание: Главный герой истории — Алексей, талантливый программист из Новосибирска, приезжает в Москву и становится членом закрытого полулегального элитного клуба под названием «Спираль». Как новичку ему крупно везет, и он выигрывает одну экстремальную игру клуба за другой, получая сумасшедшие гонорары. В него влюбляется такая девушка, о какой он даже не мог мечтать.
Но в одночасье красивый мир вокруг него рушится, и он влипает в крупные неприятности — его обвиняют в ограблении банка, любимая девушка не верит в его невиновность, и в довершении всего его пытаются убить…- Качество видео: HDRip
Контейнер: AVI
Видео кодек: XviD
Аудио кодек: AC3
Видео: 720x304 (2.37:1), 25 fps, XviD build 50 ~1546 kbps avg, 0.282 bit/pixel
Аудио: 48kHz, AC3, 6 ch, 448 Кбит/с (Оригинальное)
General
Complete name : W:\Spiral.2014.O.HDRip.1400Mb_.avi
Format : AVI
Format/Info : Audio Video Interleave
File size : 1.37 GiB
Duration : 1h 37mn
Overall bit rate : 2 004 Kbps
Writing application : VirtualDubMod 1.5.10.2 (build 2540/release)
Writing library : VirtualDubMod build 2540/release
Video
ID : 0
Format : MPEG-4 Visual
Format profile : Advanced [email protected]
Format settings, BVOP : Yes
Format settings, QPel : No
Format settings, GMC : No warppoints
Format settings, Matrix : Custom
Codec ID : XVID
Codec ID/Hint : XviD
Duration : 1h 37mn
Bit rate : 1 546 Kbps
Width : 720 pixels
Height : 304 pixels
Display aspect ratio : 2.35:1
Frame rate : 25.000 fps
Color space : YUV
Chroma subsampling : 4:2:0
Bit depth : 8 bits
Scan type : Progressive
Bits/(Pixel*Frame) : 0.282
Stream size : 1.05 GiB (77%)
Writing library : XviD 1.2.1 (UTC 2008-12-04)
Audio
ID : 1
Format : AC-3
Format/Info : Audio Coding 3
Mode extension : CM (complete main)
Codec ID : 2000
Duration : 1h 37mn
Bit rate mode : Constant
Bit rate : 448 Kbps
Channel(s) : 6 channels
Channel positions : Front: L C R, Side: L R, LFE
Sampling rate : 48.0 KHz
Bit depth : 16 bits
Stream size : 313 MiB (22%)
Alignment : Split accross interleaves
Interleave, duration : 40 ms (1.00 video frame)
Interleave, preload duration : 500 ms
Download / Скачать

Хотите скачать бесплатно? Зарегистрируйтесь на сайте (ссылка на регистрацию). Pirat.ca - самый быстрый торрент трекер в рунете!

Как скачивать  ·   Что такое торрент  ·   Рейтинг и ограничения

Пост 01-Май-2014 16:23 (спустя 2 часа 56 минут)

Топик был перенесен из форума Наше кино (Трюм) в форум Новинки (HD|DVD|BD| TV|SAT|PDTV| - Rips)
ara1205
 

mrdim-CHEHOV

Флибустьер

Пост 01-Май-2014 21:01 (спустя 7 часов)

[Q] 

Автору респект!!! глянем...

_________________
Все будет не так, как мы решим. Все будет тогда, когда мы решимся.
[Профиль]  [ЛС] 

ntvsx

Шкипер

Пост 01-Май-2014 21:40 (спустя 38 минут)

[Q] 

А нормальный фильм! Посмотрел с удовольствием. Бочка в трюме, спасибо за труды.
[Профиль]  [ЛС] 

Полтос

Флибустьер

Пост 02-Май-2014 10:07 (спустя 12 часов)

[Q] 

По мне, так фильм не дотягивает до среднего. Игры такого характера в Москве выглядят нереально, даже для золотой молодежи, не то что для талантливого програмера. Так, пафос... Очередная пародия на запад, что характерно для нашего нового кино. Разок глянуть от нечего делать можно...
На любителя

_________________
Первый закон Прапорщика: Всё что поднимаемо - относительно!)
[Профиль]  [ЛС] 

ROSO

Шкипер

Пост 02-Май-2014 12:04 (спустя 1 час 57 минут)

[Q] 

посмотрим, спасибо
[Профиль]  [ЛС] 

Jek@

Легенда

Пост 03-Май-2014 12:38 (спустя 1 день)

[Q] 

Спасибо!!! .
[Профиль]  [ЛС] 

ka1iostro

Корсар

Пост 04-Май-2014 19:08 (спустя 1 день 6 часов)

[Q] 

спасибооо большоооеее)))
[Профиль]  [ЛС] 

serded74

Морской Волк

Пост 04-Май-2014 23:14 (спустя 4 часа)

[Q] 

Разок посмотреть можно.Потом и не вспомнишь про этот "фильм"
[Профиль]  [ЛС] 

sonyps

Морской Волк

Пост 06-Май-2014 22:44 (спустя 1 день 23 часа)

[Q] 

Ну ниче такое Супер!
[Профиль]  [ЛС] 

Совунья

Морской Волк

Пост 07-Май-2014 09:52 (спустя 11 часов)

[Q] 

Мне понравилось. Реальная спираль. Так все закручено.... Но согласна, для Москвы такие игры выглядят не реально...
Раздающему респект!

_________________
Я верю в честность Президента, и в неподкупность постовых! В заботу банка о клиентах. В вампиров верю, в домовых.
[Профиль]  [ЛС] 

Urlhtml

Корсар

Пост 07-Май-2014 12:53 (спустя 3 часа)

[Q] 

Спасибо!!! посмотрим ка
[Профиль]  [ЛС] 

viktor41

Шкипер

Пост 07-Май-2014 13:10 (спустя 16 минут)

[Q] 

Resident, Спасибо. Посмотрел с удовольствием....
[Профиль]  [ЛС] 

saint1313

Лоцман

Пост 08-Май-2014 21:51 (спустя 1 день 8 часов)

[Q] 

посоны... посоны... как перевод?
[Профиль]  [ЛС] 

lisiy2000

Штурман

Пост 11-Май-2014 17:46 (спустя 2 дня 19 часов)

[Q] 

Давно не смотрел современного русского кина, посмотрел... лучшеб не смотрел
[Профиль]  [ЛС] 

viewpoint

Шкипер

28

Пост 22-Июн-2014 04:53 (спустя 1 месяц 10 дней)

[Q] 

Ни о чем, даже комментировать не буду.
[Профиль]  [ЛС] 

woger68

Корсар

Пост 20-Сен-2014 23:59 (спустя 2 месяца 28 дней)

[Q] 

Посмотрел и ладно! На любителя
[Профиль]  [ЛС] 

Scorpion7474

Флибустьер

Пост 25-Сен-2014 15:21 (спустя 4 дня)

[Q] 

Лови бочку
[Профиль]  [ЛС] 
Показать сообщения:    
Ответить на тему

Текущее время: Сегодня 18:33

Часовой пояс: GMT + 4



Вы не можете начинать темы
Вы не можете отвечать на сообщения
Вы не можете редактировать свои сообщения
Вы не можете удалять свои сообщения
Вы не можете голосовать в опросах
Вы не можете прикреплять файлы к сообщениям
Вы не можете скачивать файлы

▼ Вниз