ML
     
  Уважаемый Гость!
Вы можете поддержать проект и зарегистрироваться у наших партнеров - онлайн-стратегия MyLands. При регистрации в игре Вы получите код, который сможете активировать после регистрации на pirat.ca и получить 1000 дублонов.

Ваш код:
dbd0d701284cde74a1f34d06ce20b7bc75a73e75
 
     

Время собирать (Владимир Устюгов) [2014 г., Мелодрама, SATRip]

Ответить на тему
 
Автор
Сообщение

Пост 01-Май-2014 20:31

[Q] 

Resident

-Время собирать-- Производство: Россия
Режиссер: Владимир Устюгов
Жанр: Мелодрама
Год выпуска: 2014 г.
Продолжительность: 01:31:41
Российская премьера: 2014
В ролях: Наталия Антонова, Алексей Макаров, Екатерина Волкова, Анастасия Акатова, Анастасия Стежко, Ульяна Урванцева, Марина Федункив, Анастасия Шалонько-Описание: Евгения работает учителем физкультуры в школе и одна воспитывает взрослую дочь Машу. Она души не чает в детях, трудится на износ, пытается растормошить вялых коллег и приобщить всех к здоровому образу жизни. Учителя посмеиваются над инициативной Женей, а школьники давно окрестили ее «чеканашкой». Усилий Жени не ценит и ее дочь. Старшеклассница Маша жаждет «красивой жизни» и осуждает мать-бессребреницу. Однажды в город приезжает миллионер, хозяин «газет, заводов, пароходов» Алексей. В юности у них с Женей был роман – та самая «первая любовь»..-
Качество видео: SATRip
Контейнер: AVI
Видео кодек: XviD
Аудио кодек: MP3
Видео: XviD, 1495 Кбит/с, 704х368, 25 fps, 0.231 bpp
Аудио: 48.0 KHz, MP3, 2 ch, 128 Кбит/с (Оригинальное)
Cубтитры: отсутствуют
General
Complete name : W:\Vremja sobirat'.2014.SATRip.avi
Format : AVI
Format/Info : Audio Video Interleave
File size : 1.05 GiB
Duration : 1h 31mn
Overall bit rate : 1 633 Kbps
Writing application : VirtualDubMod 1.5.10.2 (build 2540/release)
Writing library : VirtualDub build 34703/release
Video
ID : 0
Format : MPEG-4 Visual
Format profile : Advanced [email protected]
Format settings, BVOP : Yes
Format settings, QPel : No
Format settings, GMC : No warppoints
Format settings, Matrix : Default (MPEG)
Muxing mode : Packed bitstream
Codec ID : XVID
Codec ID/Hint : XviD
Duration : 1h 31mn
Bit rate : 1 495 Kbps
Width : 704 pixels
Height : 368 pixels
Display aspect ratio : 1.913
Frame rate : 25.000 fps
Color space : YUV
Chroma subsampling : 4:2:0
Bit depth : 8 bits
Scan type : Progressive
Bits/(Pixel*Frame) : 0.231
Stream size : 980 MiB (92%)
Writing library : XviD 64
Audio
ID : 1
Format : MPEG Audio
Format version : Version 1
Format profile : Layer 3
Mode : Joint stereo
Codec ID : 55
Codec ID/Hint : MP3
Duration : 1h 31mn
Bit rate mode : Constant
Bit rate : 128 Kbps
Channel(s) : 2 channels
Sampling rate : 48.0 KHz
Stream size : 83.9 MiB (8%)
Alignment : Aligned on interleaves
Interleave, duration : 40 ms (1.00 video frame)
Interleave, preload duration : 504 ms
Writing library : LAME3.90.3
Download / Скачать

Хотите скачать бесплатно? Зарегистрируйтесь на сайте (ссылка на регистрацию). Pirat.ca - самый быстрый торрент трекер в рунете!

Как скачивать  ·   Что такое торрент  ·   Рейтинг и ограничения

Пост 01-Май-2014 21:54 (спустя 1 час 22 минуты)

Топик был перенесен из форума Наше кино (Трюм) в форум Новинки (HD|DVD|BD| TV|SAT|PDTV| - Rips)
kugesan
 

Дмитров

Морской Волк

Пост 02-Май-2014 00:15 (спустя 3 часа)

[Q] 

Хороший добрый фильм о человеческих взаимоотношениях! Рекомендую особенно любимым дамам.
[Профиль]  [ЛС] 

platon18

Гроза морей

Пост 02-Май-2014 05:15 (спустя 4 часа)

[Q] 

сопли, слюни, тфу
[Профиль]  [ЛС] 

viktor41

Шкипер

Пост 02-Май-2014 11:49 (спустя 6 часов)

[Q] 

Resident, Спасибочки ))
[Профиль]  [ЛС] 

dunay-ekb

Юнга

Пост 02-Май-2014 15:20 (спустя 3 часа)

[Q] 

что здесь делает мыло с России 2 ???
[Профиль]  [ЛС] 

ягжин

Гроза морей

Пост 02-Май-2014 17:05 (спустя 1 час 45 минут)

[Q] 

Для жены. Спасибо!!!
[Профиль]  [ЛС] 

KoSkud

Флибустьер

Пост 03-Май-2014 04:36 (спустя 11 часов)

[Q] 

Автору спасибо. А это не римейк фильма Астрахана "Всё будет хорошо" с небольшой корректировкой в деталях,интересно ?

_________________
Учись-играя,играя-учись
[Профиль]  [ЛС] 
Показать сообщения:    
Ответить на тему

Текущее время: Сегодня 18:30

Часовой пояс: GMT + 4



Вы не можете начинать темы
Вы не можете отвечать на сообщения
Вы не можете редактировать свои сообщения
Вы не можете удалять свои сообщения
Вы не можете голосовать в опросах
Вы не можете прикреплять файлы к сообщениям
Вы не можете скачивать файлы

▼ Вниз