ML
     
  Уважаемый Гость!
Вы можете поддержать проект и зарегистрироваться у наших партнеров - онлайн-стратегия MyLands. При регистрации в игре Вы получите код, который сможете активировать после регистрации на pirat.ca и получить 1000 дублонов.

Ваш код:
74c28610d77aaac24ba694c4128f3b9b46b04220
 
     

Дот (Анатолий Матешко) [2009 г., военный, DVDRip]

Ответить на тему
 
Автор
Сообщение

Пост 04-Май-2014 12:53

[Q] 

Мархуз

-Дот-- Производство: Украина. «Иллюзион-фильмз»
Режиссер: Анатолий Матешко
Жанр: военный
Год выпуска: 2009 г.
Продолжительность: 01:27:47
В ролях: Евгений Ганелин, Игорь Ливанов, Татьяна Черкасова, Александр Суворов, Станислав Мельник, Андрей Исаенко, Давид Зиммершид, Сергей Калантай, Игорь Гнездилов, Анатолий Гнатюк, Сергей Мищенко, Андрей Журба, Георгий Безуглый, Андрей Битюков, Андрей Грель, Алексей Довбыш, Сергей Жуликов, Андрей Зиневич, Роман Кравчук, Виктор Лисюченко, Руслан Новик-Описание: 1941-й год. Фашистские войска стремительно наступают, и линия фронта отодвигается все дальше на восток. Война испытывает силу духа каждого, кто попадается на ее пути. Четверо советских бойцов, укрывшихся в доте, оказываются в глубоком немецком тылу. Вместо 10 человек, необходимых по комплектации, в каземате находятся капитан Леонов, морской старшина Ковш, не успевший добраться до флота, и два солдата-«желторотика». В условиях постоянной нехватки ресурсов и боекомплекта они до последнего пытаются сдержать немецкую атаку. Ситуация усугубляется, когда недалеко от дота сбивают наш самолет, и среди уцелевших в укреплении оказывается генерал. Теперь немцы не отступятся, пока не завладеют секретными данными, известными русскому военному командиру...-Качество видео: DVDRip
Контейнер: AVI
Видео кодек: XviD
Аудио кодек: AC3
Видео: 672x384; 2174 kbps; 25 fps; 0.337 bit/pixel
Аудио: 192 kbps; 2 ch; 48 kHz
Cубтитры: отсутствуют
General
Complete name : E:\Torrent\Dot_[Pirat.ca].torrent.avi
Format : AVI
Format/Info : Audio Video Interleave
File size : 1.46 GiB
Duration : 1h 27mn
Overall bit rate : 2 376 Kbps
Movie name : dot.2009.dvdrip.ac3.1450mb.by.riperrr
Writing application : VirtualDubMod 1.5.10.3 | www.virtualdub-fr.org || (build 2550/release)
Copyright : riperrr [RG Allfilms pirat.ca]
Video
ID : 0
Format : MPEG-4 Visual
Format profile : Advanced [email protected]
Format settings, BVOP : 1
Format settings, QPel : No
Format settings, GMC : No warppoints
Format settings, Matrix : Custom
Codec ID : XVID
Codec ID/Hint : XviD
Duration : 1h 27mn
Bit rate : 2 174 Kbps
Width : 672 pixels
Height : 384 pixels
Display aspect ratio : 16:9
Frame rate : 25.000 fps
Color space : YUV
Chroma subsampling : 4:2:0
Bit depth : 8 bits
Scan type : Progressive
Compression mode : Lossy
Bits/(Pixel*Frame) : 0.337
Stream size : 1.33 GiB (92%)
Writing library : XviD 65
Audio
ID : 1
Format : AC-3
Format/Info : Audio Coding 3
Mode extension : CM (complete main)
Format settings, Endianness : Big
Codec ID : 2000
Duration : 1h 27mn
Bit rate mode : Constant
Bit rate : 192 Kbps
Channel(s) : 2 channels
Channel positions : Front: L R
Sampling rate : 48.0 KHz
Bit depth : 16 bits
Compression mode : Lossy
Stream size : 121 MiB (8%)
Alignment : Split accross interleaves
Interleave, duration : 40 ms (1.00 video frame)
Interleave, preload duration : 500 ms
Раздача с 14.00 до 2.30 (время московское)
Download / Скачать

Хотите скачать бесплатно? Зарегистрируйтесь на сайте (ссылка на регистрацию). Pirat.ca - самый быстрый торрент трекер в рунете!

Как скачивать  ·   Что такое торрент  ·   Рейтинг и ограничения

Пост 04-Май-2014 13:28 (спустя 35 минут)

Топик был перенесен из форума Наше кино (Трюм) в форум Российские фильмы
kugesan
 

biz02

Мичман

Пост 04-Май-2014 14:53 (спустя 2 часа)

[Q] 

Мощный фильм.
Мне понравилось
[Профиль]  [ЛС] 

wisegoliath

Лоцман

Пост 04-Май-2014 18:07 (спустя 3 часа)

[Q] 

Хороший фильм! Спасибо! Автору респект!!!
[Профиль]  [ЛС] 

Kosmatos

Корсар

Пост 04-Май-2014 18:24 (спустя 16 минут)

[Q] 

А фильм то хороший, серьезный! Странно, что совсем незамеченно прошел! Рездающему уважуха!
[Профиль]  [ЛС] 

Мархуз ®

4505

Пост 05-Май-2014 12:30 (спустя 18 часов)

[Q] 

biz02, wisegoliath, Kosmatos, спасибо, пираты, за благодарность. aa я сам в шоке- только за один день скачали 61 раз!!! be даже не ожидал.

_________________

Счастье для всех, даром, и пусть никто не уйдёт обиженный
[Профиль]  [ЛС] 

U-858

Флибустьер

Пост 05-Июн-2014 20:42 (спустя 1 месяц)

[Q] 

Спасибо Автору респект!!! Лови бочку
[Профиль]  [ЛС] 

zagreb313

Штурман

Пост 08-Июн-2014 01:32 (спустя 2 дня 4 часа)

[Q] 

Мдаа... Действительно не заметили. Раздающему респект!
[Профиль]  [ЛС] 

viewpoint

Шкипер

28

Пост 27-Июн-2014 23:02 (спустя 19 дней)

[Q] 

не столько фильм, сколько киноспектакль.
На любителя
[Профиль]  [ЛС] 

Scorpion7474

Флибустьер

Пост 27-Июн-2014 23:25 (спустя 22 минуты)

[Q] 

спасибо посмотрим Лови бочку
[Профиль]  [ЛС] 

kalmyk73

Морской Волк

Пост 16-Сен-2014 20:20 (спустя 2 месяца 18 дней)

[Q] 

Спасибо!!! хорошее кино

_________________
Я люблю тебя жизнь ну а ты меня СНОВА И СНОВА.
[Профиль]  [ЛС] 
Показать сообщения:    
Ответить на тему

Текущее время: Сегодня 09:59

Часовой пояс: GMT + 4



Вы не можете начинать темы
Вы не можете отвечать на сообщения
Вы не можете редактировать свои сообщения
Вы не можете удалять свои сообщения
Вы не можете голосовать в опросах
Вы не можете прикреплять файлы к сообщениям
Вы не можете скачивать файлы

▼ Вниз