ML
     
  Уважаемый Гость!
Вы можете поддержать проект и зарегистрироваться у наших партнеров - онлайн-стратегия MyLands. При регистрации в игре Вы получите код, который сможете активировать после регистрации на pirat.ca и получить 1000 дублонов.

Ваш код:
2a3da67fd641d69eeebb7cb965232435a70eaa24
 
     

Сорокапятка (Вячеслав Афонин) [2008 г., военный, DVDRip]

Ответить на тему
 
Автор
Сообщение

Пост 06-Май-2014 12:32

[Q] 

Мархуз

-Сорокапятка-- Производство: Украина. Ce cinema
Режиссер: Вячеслав Афонин
Жанр: военный
Год выпуска: 2008 г.
Продолжительность: 01:28:04
В ролях: Дмитрий Кубасов, Сергей Удовик, Ян Цапник, Наталия Лесниковская, Виталий Овчаров, Владимир Миненко, Владимир Павлюшкин, Акбар Расулов, Владимир Лысенко, Станислав Ковальский, Сергей Романюк, Игорь Салимонов, Сергей Фролов, Андрей Бута, Сергей Деньга, Леонид Анисимов, Александр Бабий, Юлий Божек, Юрий Васильченко, Алексей Вахрушев, Сергей Демченко-Описание: Картина рассказывает о первых днях Великой Отечественной войны, когда в суматохе отступления советских войск под Брестом остается забыт артиллерийский расчет под командованием лейтенанта Гусева – вчерашнего выпускника военного училища, прибывшего в расположение своей части всего лишь за день до начала войны. Чудом уцелев во время бомбежки, Гусев и его товарищи оказываются в тылу немецких войск. Вооружившись противотанковой пушкой 45 калибра, молодые бойцы решают прорываться к советским войскам в то время, как фронт продолжает отступать всё дальше и дальше...-Качество видео: DVDRip
Контейнер: AVI
Видео кодек: XviD
Аудио кодек: AC3
Видео: 720x400; 2136 kbps; 25 fps; 0.297 bit/pixel
Аудио: 224 kbps; 2 ch; 48 kHz
Cубтитры: отсутствуют
General
Complete name : E:\Torrent\Sorokopyatka_[Pirat.ca].torrent.avi
Format : AVI
Format/Info : Audio Video Interleave
File size : 1.46 GiB
Duration : 1h 28mn
Overall bit rate : 2 370 Kbps
Writing application : VirtualDubMod 1.5.10.2 (build 2540/release)
Writing library : VirtualDubMod build 2540/release
Video
ID : 0
Format : MPEG-4 Visual
Format profile : Advanced [email protected]
Format settings, BVOP : 1
Format settings, QPel : No
Format settings, GMC : No warppoints
Format settings, Matrix : Custom
Codec ID : XVID
Codec ID/Hint : XviD
Duration : 1h 28mn
Bit rate : 2 136 Kbps
Width : 720 pixels
Height : 400 pixels
Display aspect ratio : 16:9
Frame rate : 25.000 fps
Color space : YUV
Chroma subsampling : 4:2:0
Bit depth : 8 bits
Scan type : Progressive
Compression mode : Lossy
Bits/(Pixel*Frame) : 0.297
Stream size : 1.31 GiB (90%)
Writing library : XviD 1.2.1 (UTC 2008-12-04)
Audio
ID : 1
Format : AC-3
Format/Info : Audio Coding 3
Mode extension : CM (complete main)
Format settings, Endianness : Big
Codec ID : 2000
Duration : 1h 28mn
Bit rate mode : Constant
Bit rate : 224 Kbps
Channel(s) : 2 channels
Channel positions : Front: L R
Sampling rate : 48.0 KHz
Bit depth : 16 bits
Compression mode : Lossy
Stream size : 141 MiB (9%)
Alignment : Split accross interleaves
Interleave, duration : 40 ms (1.00 video frame)
Interleave, preload duration : 500 ms
Раздача с 14.00 до 2.30 (время московское)
Download / Скачать

Хотите скачать бесплатно? Зарегистрируйтесь на сайте (ссылка на регистрацию). Pirat.ca - самый быстрый торрент трекер в рунете!

Как скачивать  ·   Что такое торрент  ·   Рейтинг и ограничения

Пост 06-Май-2014 12:51 (спустя 18 минут)

Топик был перенесен из форума Наше кино (Трюм) в форум Российские фильмы
ara1205
 

искандер 1970

Лоцман

Пост 06-Май-2014 13:50 (спустя 1 час 17 минут)

[Q] 

буду первым
bi
[Профиль]  [ЛС] 

jofrei53

Корсар

Пост 06-Май-2014 21:40 (спустя 7 часов)

[Q] 

Я второй...Спасибо! С Днём Победы! СЛАВА И НИЗКИЙ ПОКЛОН ВЕТЕРАНАМ!!! Спасибо!!!
[Профиль]  [ЛС] 

Мархуз ®

4507

Пост 07-Май-2014 00:16 (спустя 2 часа 36 минут)

[Q] 

искандер 1970, jofrei53, и вам спасибо. aa jofrei53, присоединяюсь. ВЕЧНАЯ СЛАВА ПОБЕДИТЕЛЯМ!!!

_________________

Счастье для всех, даром, и пусть никто не уйдёт обиженный
[Профиль]  [ЛС] 
Показать сообщения:    
Ответить на тему

Текущее время: Сегодня 01:12

Часовой пояс: GMT + 4



Вы не можете начинать темы
Вы не можете отвечать на сообщения
Вы не можете редактировать свои сообщения
Вы не можете удалять свои сообщения
Вы не можете голосовать в опросах
Вы не можете прикреплять файлы к сообщениям
Вы не можете скачивать файлы

▼ Вниз