ML
     
  Уважаемый Гость!
Вы можете поддержать проект и зарегистрироваться у наших партнеров - онлайн-стратегия MyLands. При регистрации в игре Вы получите код, который сможете активировать после регистрации на pirat.ca и получить 1000 дублонов.

Ваш код:
aec9a4a936117fb450ba69e519991a0465404b1d
 
     

Рывок (Канагат Мустафин) [2010 г., драма, спорт, DVDRip]

Ответить на тему
 
Автор
Сообщение

Пост 12-Янв-2012 00:39

[Q] 

druger

Морской Волк

Рывок -Год: 2010
Жанр: драма, спорт
Страна: Казахстан
Продолжительность: 01:19:16
Перевод: Не требуется
Субтитры: Нет
-
Канагат Мустафин
- Гоша Куценко, Арыстан Мырзагереев, Асель Садвакасова, Жанат Байжанбаев, Мурат Бисембин, Гульнара Дусматова, Григорий Ефимов, Дмитрий Скирта, Меруерт Утекешева, Назим Хаиров, Ольга Шишигина, Аманжол Айтуаров, Екатерина Муратова, Карлыгаш Мухамеджанова - В пятом классе герой по имени Канат неудачно поймал мяч и разбил себе нос. Он не мог забыть насмешек одноклассников и решил доказать всем, чего может достичь На пути к цели он преодолеет немало трудностей. Для выхода из сложной ситуации даже вынужден будет изменить не только привычный образ жизни, но и некоторые моральные устои. Однако, несмотря на все преграды, Канату все-таки удастся совершить рекорд в казахстанском спорте…-
-
Качество: DVDRip
Формат: AVI
Видео кодек: XviD
Аудио кодек: AC3
Видео: 720x384, 25 fps, 2013 kbps, 0.29 bit/pixel
Аудио: 48.0 KHz, Audio Coding 3, 6 ch, 448 Kbps
-
Общее
Полное имя : D:\Program Files\!Ryvok.2010.DVDRip.avi
Формат : AVI
Формат/Информация : Audio Video Interleave
Размер файла : 1,37 Гбайт
Продолжительность : 1 ч. 19 м.
Общий поток : 2468 Кбит/сек
Программа кодирования : VirtualDubMod 1.5.4.1 (build 2178/release)
Библиотека кодирования : VirtualDubMod build 2178/release
Видео
Идентификатор : 0
Формат : MPEG-4 Visual
Профиль формата : Advanced [email protected]
Параметр BVOP формата : 1
Параметр QPel формата : Нет
Параметр GMC формата : Без точки перехода
Параметр матрицы формата : Выборочная
Идентификатор кодека : XVID
Идентификатор кодека/Подсказка : XviD
Продолжительность : 1 ч. 19 м.
Битрейт : 2013 Кбит/сек
Ширина : 720 пикс.
Высота : 384 пикс.
Соотношение сторон : 1,875
Частота кадров : 25,000 кадр/сек
Цветовое пространство : YUV
Подвыборка цветности : 4:2:0
Битовая глубина : 8 бит
Тип развёртки : Прогрессивная
Метод сжатия : С потерями
Бит/(Пиксели*Кадры) : 0.291
Размер потока : 1,11 Гбайт (82%)
Библиотека кодирования : XviD 1.2.1 (UTC 2008-12-04)
Аудио
Идентификатор : 1
Формат : AC-3
Формат/Информация : Audio Coding 3
Расширение режима : CM (complete main)
Идентификатор кодека : 2000
Продолжительность : 1 ч. 19 м.
Вид битрейта : Постоянный
Битрейт : 448 Кбит/сек
Каналы : 6 каналов
Расположение каналов : Front: L C R, Side: L R, LFE
Частота : 48,0 КГц
Битовая глубина : 16 бит
Метод сжатия : С потерями
Размер потока : 254 Мбайт (18%)
Выравнивание : Разделение по промежуткам
Продолжительность промежутка : 96 мс. (2,40 видеокадра)
Время предзагрузки промежутка : 96 ms

-
© Оформление by druger
Download / Скачать

Хотите скачать бесплатно? Зарегистрируйтесь на сайте (ссылка на регистрацию). Pirat.ca - самый быстрый торрент трекер в рунете!

Как скачивать  ·   Что такое торрент  ·   Рейтинг и ограничения

Пост 12-Янв-2012 20:12 (спустя 19 часов)

Топик был перенесен из форума Наше Кино в форум Российские фильмы

goxakrauter
 

Wolf111

57067

Пост 08-Апр-2013 19:33 (спустя 1 год 2 месяца)

[Q] 

[Профиль]  [ЛС] 

CHARLI2236

1089

Пост 11-Сен-2013 18:16 (спустя 5 месяцев 2 дня)

[Q] 

подключаюсь AntiZip 6

_________________
[Профиль]  [ЛС] 

Sailor

Морской Волк

Пост 08-Ноя-2013 22:58 (спустя 1 месяц 27 дней)

[Q] 

Не смотрел ещё, но казахские фильмы рулят. Забираю.
[Профиль]  [ЛС] 

Sailor

Морской Волк

Пост 02-Авг-2014 18:07 (спустя 8 месяцев 23 дня)

[Q] 

Мда... Ну этот не вырулил.
[Профиль]  [ЛС] 
Показать сообщения:    
Ответить на тему

Текущее время: Сегодня 02:22

Часовой пояс: GMT + 4



Вы не можете начинать темы
Вы не можете отвечать на сообщения
Вы не можете редактировать свои сообщения
Вы не можете удалять свои сообщения
Вы не можете голосовать в опросах
Вы не можете прикреплять файлы к сообщениям
Вы не можете скачивать файлы

▼ Вниз