ML
     
  Уважаемый Гость!
Вы можете поддержать проект и зарегистрироваться у наших партнеров - онлайн-стратегия MyLands. При регистрации в игре Вы получите код, который сможете активировать после регистрации на pirat.ca и получить 1000 дублонов.

Ваш код:
ec3b26eefbcdc72e08e9fd33c6846bb2ca10f8b1
 
     

Двое и война (Евгений Звездаков) [2007 г., военный, DVDRip]

Ответить на тему
 
Автор
Сообщение

Пост 08-Май-2014 13:22

[Q] 

Мархуз

-Двое и война-- Производство: Россия, Синебридж, при участии Одесской киностудии
Режиссер: Евгений Звездаков
Жанр: военный
Год выпуска: 2007 г.
Продолжительность: 01:27:18
В ролях: Н.Зверев, Т.Арнтгольц, В.Стержаков, Б.Щербаков, А.Фролов, А.Ильин, О.Равицкая, А.Чуланова, И.Ковальская, Б.Смирнов, Г.Делиев, Я.Кучеревский, Ю.Лопарев, Н.Величко, В.Яковец, М.Пивоварова, Г.Кобзар-Слободюк, В.Борисенко, А.Гуменный, Б.Паршаков, А.Суворов, О.Бурлай, А.Вербец, С.Логошняк, В.Марченко, Д.Баранников, Е.Гашенко, Я.Новиков, А.Каспарянц, Д.Фалюта, А.Зай, А.Бабий-Описание: 1943 год. Офицер-артиллерист Виктор Суханов, возвращаясь в тыл с фронта, знакомится в поезде со случайным попутчиком. Поезд бомбят - Виктор контужен, а его новый знакомый погибает, передавая перед смертью письмо для своей дочери.
Приходя в себя после контузии в госпитале, Виктор находит адресата письма - красавицу-дочь его случайного знакомого. Между ними возникает взаимная симпатия, а затем и более глубокие чувства. Марина и Виктор уже не представляют жизни друг без друга и решают пожениться. Но на следующий же день после свадьбы, Виктора арестовывают по ложному обвинению. Он попадает в штрафбат, а молодая жена отправляется в школу радисток и вскоре её отправляют в немецкий тыл к партизанам...-Качество видео: DVDRip
Контейнер: AVI
Видео кодек: DivX
Аудио кодек: AC3
Видео: 704x416; 203942 kbps; 25.000 fps; 0.278 bits/pixel
Аудио: 192 kbps; 2 ch; 48 kHz
Cубтитры: отсутствуют
General
Complete name : E:\Torrent\Dvoe_i_vojna_[Pirat.ca].torrent.avi
Format : AVI
Format/Info : Audio Video Interleave
File size : 1.37 GiB
Duration : 1h 27mn
Overall bit rate : 2 241 Kbps
Writing application : VirtualDubMod 1.5.10.2 (build 2540/release)
Writing library : VirtualDubMod build 2540/release
Video
ID : 0
Format : MPEG-4 Visual
Format settings, BVOP : 1
Format settings, QPel : No
Format settings, GMC : No warppoints
Format settings, Matrix : Default (H.263)
Muxing mode : Packed bitstream
Codec ID : DX50
Codec ID/Hint : DivX 5
Duration : 1h 27mn
Bit rate : 2 039 Kbps
Width : 704 pixels
Height : 416 pixels
Display aspect ratio : 1.692
Frame rate : 25.000 fps
Color space : YUV
Chroma subsampling : 4:2:0
Bit depth : 8 bits
Scan type : Progressive
Compression mode : Lossy
Bits/(Pixel*Frame) : 0.278
Stream size : 1.24 GiB (91%)
Writing library : DivX 6.8.5 (UTC 2009-08-20)
Audio
ID : 1
Format : AC-3
Format/Info : Audio Coding 3
Mode extension : CM (complete main)
Format settings, Endianness : Big
Codec ID : 2000
Duration : 1h 27mn
Bit rate mode : Constant
Bit rate : 192 Kbps
Channel(s) : 2 channels
Channel positions : Front: L R
Sampling rate : 48.0 KHz
Bit depth : 16 bits
Compression mode : Lossy
Stream size : 120 MiB (9%)
Alignment : Split accross interleaves
Interleave, duration : 40 ms (1.00 video frame)
Interleave, preload duration : 500 ms
Раздача с 14.00 до 2.30 (время московское)
Download / Скачать

Хотите скачать бесплатно? Зарегистрируйтесь на сайте (ссылка на регистрацию). Pirat.ca - самый быстрый торрент трекер в рунете!

Как скачивать  ·   Что такое торрент  ·   Рейтинг и ограничения

Пост 08-Май-2014 17:12 (спустя 3 часа)

Топик был перенесен из форума Наше кино (Трюм) в форум Российские фильмы
kugesan
 
Показать сообщения:    
Ответить на тему

Текущее время: Сегодня 03:45

Часовой пояс: GMT + 4



Вы не можете начинать темы
Вы не можете отвечать на сообщения
Вы не можете редактировать свои сообщения
Вы не можете удалять свои сообщения
Вы не можете голосовать в опросах
Вы не можете прикреплять файлы к сообщениям
Вы не можете скачивать файлы

▼ Вниз