ML
     
  Уважаемый Гость!
Вы можете поддержать проект и зарегистрироваться у наших партнеров - онлайн-стратегия MyLands. При регистрации в игре Вы получите код, который сможете активировать после регистрации на pirat.ca и получить 1000 дублонов.

Ваш код:
74c28610d77aaac24ba694c4128f3b9b46b04220
 
     

Авантюристы (Константин Буслов) [2014 г., Приключения, WEB-DLRip]

Ответить на тему
 
Автор
Сообщение

Пост 08-Май-2014 16:26

[Q] 

Resident

-Авантюристы-- Производство: Россия, Нон стоп Продакшн
Режиссер: Константин Буслов
Жанр: Приключения
Год выпуска: 2014 г.
Продолжительность: 01:28:35
Российская премьера: 10 апреля 2014, «Двадцатый Век Фокс СНГ», «A Company»
В ролях: Константин Хабенский, Светлана Ходченкова, Денис Шведов-Описание: Катя и Андрей, успешный молодой банкир, прилетают на Мальту на отдых. В дайвинг-центре они случайно встречают Макса — профессионального дайвера, тайком занимающегося черной археологией, и, по совместительству, бывшего возлюбленного Кати.Во время одного из погружений Катя находит фрагмент спасательного жилета с номером немецкой подлодки времен Второй мировой. Девушка выясняет, что в 1942 году у мальтийского ордена рыцарей-госпитальеров была похищена коллекция уникальных древнеегипетских реликвий, которая должна была быть доставлена в Германию именно на подлодке. Однако ценный груз туда в итоге не прибыл.Рассудив, что подводная лодка с сокровищами, скорее всего, лежит на дне у берегов Мальты, троица начинает ее поиски, ввязываясь в череду опасных авантюр, в том числе и подводных. А отношения между искателями приключений все больше напоминают любовный треугольник…-
Качество видео: WEB-DL
Контейнер: AVI
Видео кодек: XviD
Аудио кодек: AC3
Видео: 720x304 (2.37:1), 25 fps, XviD build 50 ~1879 kbps avg, 0.34 bit/pixel
Аудио: 48 kHz, AC3 Dolby Digital, 2/0 (L,R) ch, ~320 kbps
General
Complete name : W:\Avontur1st0.2014.O.WEBRip.1400Mb.avi
Format : AVI
Format/Info : Audio Video Interleave
File size : 1.37 GiB
Duration : 1h 28mn
Overall bit rate : 2 209 Kbps
Writing application : VirtualDubMod 1.5.10.2 (build 2540/release)
Writing library : VirtualDubMod build 2540/release
Video
ID : 0
Format : MPEG-4 Visual
Format profile : Advanced [email protected]
Format settings, BVOP : Yes
Format settings, QPel : No
Format settings, GMC : No warppoints
Format settings, Matrix : Custom
Codec ID : XVID
Codec ID/Hint : XviD
Duration : 1h 28mn
Bit rate : 1 880 Kbps
Width : 720 pixels
Height : 304 pixels
Display aspect ratio : 2.35:1
Frame rate : 25.000 fps
Color space : YUV
Chroma subsampling : 4:2:0
Bit depth : 8 bits
Scan type : Progressive
Bits/(Pixel*Frame) : 0.344
Stream size : 1.16 GiB (85%)
Writing library : XviD 1.2.1 (UTC 2008-12-04)
Audio
ID : 1
Format : AC-3
Format/Info : Audio Coding 3
Mode extension : CM (complete main)
Codec ID : 2000
Duration : 1h 28mn
Bit rate mode : Constant
Bit rate : 320 Kbps
Channel(s) : 2 channels
Channel positions : Front: L R
Sampling rate : 48.0 KHz
Bit depth : 16 bits
Stream size : 203 MiB (14%)
Alignment : Split accross interleaves
Interleave, duration : 40 ms (1.00 video frame)
Interleave, preload duration : 500 ms
Download / Скачать

Хотите скачать бесплатно? Зарегистрируйтесь на сайте (ссылка на регистрацию). Pirat.ca - самый быстрый торрент трекер в рунете!

Как скачивать  ·   Что такое торрент  ·   Рейтинг и ограничения

Дядя Витя

53908

Пост 08-Май-2014 16:50 (спустя 23 минуты)

[Q] 

Хабенский авантюрист, взял и глобус пропил )

_________________
?
[Профиль]  [ЛС] 

Пост 08-Май-2014 17:10 (спустя 20 минут)

Топик был перенесен из форума Наше кино (Трюм) в форум Новинки (HD|DVD|BD| TV|SAT|PDTV| - Rips)
erchine
 

vovan200976

Флибустьер

Пост 08-Май-2014 17:33 (спустя 43 минуты)

[Q] 

Где Светка снимается фильмы просто чудо На любителя
[Профиль]  [ЛС] 

ягжин

Гроза морей

Пост 08-Май-2014 17:38 (спустя 4 минуты)

[Q] 

Ну спасибо! Спасибо!!! Лови бочку
[Профиль]  [ЛС] 

DocSoft

Гроза морей

71

Пост 08-Май-2014 20:43 (спустя 3 часа)

[Q] 

Спасибо !!! Посмотрю )

_________________
Всего одна Любовь !
[Профиль]  [ЛС] 

bolin

Флибустьер

Пост 08-Май-2014 22:37 (спустя 1 час 53 минуты)

[Q] 

Люблю приключения Спасибо!!!
[Профиль]  [ЛС] 

Танюха10988

Гроза морей

Пост 08-Май-2014 23:23 (спустя 46 минут)

[Q] 

Спасибо ждала)) Лови бочку
[Профиль]  [ЛС] 

мешок66

Морской Волк

Пост 09-Май-2014 07:31 (спустя 8 часов)

[Q] 

полная скука и хрень Отказать
[Профиль]  [ЛС] 

KoSkud

Флибустьер

Пост 09-Май-2014 10:21 (спустя 2 часа 49 минут)

[Q] 

да нормальный фильм,смотря с чем сравнивать,ведь эталоны у всех разные ))

_________________
Учись-играя,играя-учись
[Профиль]  [ЛС] 

Aleks44

Гроза морей

Пост 09-Май-2014 22:11 (спустя 11 часов)

[Q] 

Скучная и нудная мелодрама с элементами приключения
[Профиль]  [ЛС] 

ANDOKU

Шкипер

Пост 10-Май-2014 12:22 (спустя 14 часов)

[Q] 

Лови бочку
[Профиль]  [ЛС] 

seta

Шкипер

Пост 10-Май-2014 15:06 (спустя 2 часа 44 минуты)

[Q] 

Что тут сказать..очередной "русский" фильм.. На любителя
[Профиль]  [ЛС] 

prison

Штурман

Пост 13-Май-2014 01:44 (спустя 2 дня 10 часов)

[Q] 

Что за песня играет в конце фильма, когда они на посудине плывут?
[Профиль]  [ЛС] 

Пост 15-Июн-2014 18:05 (спустя 1 месяц 2 дня)

Топик был перенесен из форума Новинки (HD|DVD|BD| TV|SAT|PDTV| - Rips) в форум Российские фильмы
kugesan
 

xxApostoLxx

Шкипер

Пост 06-Июл-2014 02:40 (спустя 1 месяц 24 дня)

[Q] 

Спасибо!!! Посмотрим
[Профиль]  [ЛС] 

alex denver71

Флибустьер

Пост 07-Июл-2014 10:52 (спустя 1 день 8 часов)

[Q] 

Автору респект!!! Единственное что понравилось в этом фильме, это песня в конце фильма. В остальном ни как. bl
[Профиль]  [ЛС] 
Показать сообщения:    
Ответить на тему

Текущее время: Сегодня 09:55

Часовой пояс: GMT + 4



Вы не можете начинать темы
Вы не можете отвечать на сообщения
Вы не можете редактировать свои сообщения
Вы не можете удалять свои сообщения
Вы не можете голосовать в опросах
Вы не можете прикреплять файлы к сообщениям
Вы не можете скачивать файлы

▼ Вниз