ML
     
  Уважаемый Гость!
Вы можете поддержать проект и зарегистрироваться у наших партнеров - онлайн-стратегия MyLands. При регистрации в игре Вы получите код, который сможете активировать после регистрации на pirat.ca и получить 1000 дублонов.

Ваш код:
bc31d8aef74c92e19ad67e34a8fa63c3b9b812fb
 
     

Я – русский солдат (Андрей Малюков) [1995 г., драма, мелодрама, военный, TVRip]

Ответить на тему
 
Автор
Сообщение

Пост 08-Май-2014 17:19

[Q] 

LPPI

-Я – русский солдат- Производство: Россия, Роскомкино
Жанр: драма, мелодрама, военный
Год выпуска: 1995 г.
Продолжительность: 01:34:20-Режиссер: Андрей Малюков
В ролях: Дмитрий Медведев, Милена Цховребова-Агранович, Александр Лырчиков, Дмитрий Ошеров, Алексей Булдаков, Наталья Высоцкая, Пётр Юрченков, Альберт Арнтгольц, Игорь Гневашев, Борис Миронюк-Описание: 21 июня 1941 года за несколько часов до войны выпускник пограничного училища лейтенант Коля Плужников, бывший московский школьник, попадает в приграничный Брест и в одном из ресторанчиков знакомится с поварихой командирской столовой. Коля и его ночная попутчица Мирра неторопливо возвращаются в часть по улочкам Бреста.
А утром лейтенант Николай Плужников берет на себя командование гарнизоном и принимает первый бой с фашистами. Когда он окажется один на один с врагом, проводником и помощницей ему станет Мирра, прекрасно знающая выходы к крепости.-КиноПоиск-Качество видео: TVRip
Контейнер: AVI
Видео кодек: XviD
Аудио кодек: AC3
Видео: 720x544 (1.32:1), 25 fps, XviD build 50 ~1877 kbps avg, 0.19 bit/pixel
Аудио: 48 kHz, AC3 Dolby Digital, 2/0 (L,R) ch, ~192 kbps
Cубтитры: отсутствуют
General
Complete name : D:\Ja.Russkij.Soldat.1995.TVRip.avi
Format : AVI
Format/Info : Audio Video Interleave
File size : 1.37 GiB
Duration : 1h 34mn
Overall bit rate : 2 076 Kbps
Writing application : VirtualDubMod 1.5.4.1 (build 2178/release)
Writing library : VirtualDubMod build 2178/release
Video
ID : 0
Format : MPEG-4 Visual
Format profile : Advanced [email protected]
Format settings, BVOP : No
Format settings, QPel : No
Format settings, GMC : No warppoints
Format settings, Matrix : Custom
Codec ID : XVID
Codec ID/Hint : XviD
Duration : 1h 34mn
Bit rate : 1 877 Kbps
Width : 720 pixels
Height : 544 pixels
Display aspect ratio : 4:3
Frame rate : 25.000 fps
Color space : YUV
Chroma subsampling : 4:2:0
Bit depth : 8 bits
Scan type : Progressive
Compression mode : Lossy
Bits/(Pixel*Frame) : 0.192
Stream size : 1.24 GiB (90%)
Writing library : XviD 1.2.1 (UTC 2008-12-04)
Audio
ID : 1
Format : AC-3
Format/Info : Audio Coding 3
Mode extension : CM (complete main)
Format settings, Endianness : Big
Codec ID : 2000
Duration : 1h 34mn
Bit rate mode : Constant
Bit rate : 192 Kbps
Channel(s) : 2 channels
Channel positions : Front: L R
Sampling rate : 48.0 KHz
Bit depth : 16 bits
Compression mode : Lossy
Delay relative to video : 24ms
Stream size : 130 MiB (9%)
Alignment : Split accross interleaves
Interleave, duration : 96 ms (2.40 video frames)
Interleave, preload duration : 96 ms
Download / Скачать

Хотите скачать бесплатно? Зарегистрируйтесь на сайте (ссылка на регистрацию). Pirat.ca - самый быстрый торрент трекер в рунете!

Как скачивать  ·   Что такое торрент  ·   Рейтинг и ограничения

Пост 08-Май-2014 17:37 (спустя 17 минут)

Топик был перенесен из форума Наше кино (Трюм) в форум Российские фильмы
kugesan
 

Rusad

Флибустьер

Пост 26-Июн-2014 12:05 (спустя 1 месяц 17 дней)

[Q] 

Талантлевейший фильм о долге и чести,напоминание нам мужикам,кто такой настоящий мужчина!!!Однозначно смотреть,МУЖЧИНЫ!!!
[Профиль]  [ЛС] 
Показать сообщения:    
Ответить на тему

Текущее время: Сегодня 12:00

Часовой пояс: GMT + 4



Вы не можете начинать темы
Вы не можете отвечать на сообщения
Вы не можете редактировать свои сообщения
Вы не можете удалять свои сообщения
Вы не можете голосовать в опросах
Вы не можете прикреплять файлы к сообщениям
Вы не можете скачивать файлы

▼ Вниз