ML
     
  Уважаемый Гость!
Вы можете поддержать проект и зарегистрироваться у наших партнеров - онлайн-стратегия MyLands. При регистрации в игре Вы получите код, который сможете активировать после регистрации на pirat.ca и получить 1000 дублонов.

Ваш код:
69f316be79867e9bf99caee9682d20bb11964507
 
     

Горько! (Жора Крыжовников) [2013 г., Комедия, приключения, HDRip] «Флагман-Трейд»

Ответить на тему
 
Автор
Сообщение

Пост 10-Май-2014 23:00

[Q] 

Resident

-Горько!-- Производство: Россия, Lunapark, Bazelevs
Режиссер: Жора Крыжовников
Жанр: Комедия, приключения
Год выпуска: 2013 г.
Продолжительность: 01:40:43
Российская премьера: 24 октября 2013, «Bazelevs Distribution»
Дата выхода DVD: 5 декабря 2013, «Флагман-Трейд»
Дата выхода Blu-Ray: 23 января 2014, «Флагман-Трейд», ...-В ролях: Сергей Светлаков, Юлия Александрова, Егор Корешков, Ян Цапник, Данила Якушев, Юлия Сулес, Елена Валюшкина, Александр Паль, Сергей Лавыгин, Анастасия Добахова, Валентина Мазунина, Владимир Тебенко, Евгений Кушпель, Максим Казаков-Описание: Наташа и Рома решают провести сразу две свадьбы: одну в русской традиции - для консервативных родителей и родных, а вторую в европейском стиле – для себя и друзей. Но по нелепой случайности оба торжества сливаются воедино...-
Качество видео: HDRip
Контейнер: AVI
Видео кодек: XviD
Аудио кодек: AC3
Видео: XviD, 720x400 (16:9), 1615 Кбит/с, 24 fps, 0.233 bpp
Аудио: Dolby AC3, 48000 Гц, 448 Кбит/с, 6 каналов (5.1)
General
Complete name : W:\GORKO.2013.O.HDRip.1.46Gb.avi
Format : AVI
Format/Info : Audio Video Interleave
File size : 1.46 GiB
Duration : 1h 40mn
Overall bit rate : 2 071 Kbps
Writing application : VirtualDubMod 1.5.10.2 (build 2540/release)
Writing library : VirtualDubMod build 2540/release
Video
ID : 0
Format : MPEG-4 Visual
Format profile : Advanced [email protected]
Format settings, BVOP : Yes
Format settings, QPel : No
Format settings, GMC : No warppoints
Format settings, Matrix : Custom
Codec ID : XVID
Codec ID/Hint : XviD
Duration : 1h 40mn
Bit rate : 1 614 Kbps
Width : 720 pixels
Height : 400 pixels
Display aspect ratio : 16:9
Frame rate : 24.000 fps
Color space : YUV
Chroma subsampling : 4:2:0
Bit depth : 8 bits
Scan type : Progressive
Bits/(Pixel*Frame) : 0.233
Stream size : 1.14 GiB (78%)
Writing library : XviD 1.2.1 (UTC 2008-12-04)
Audio
ID : 1
Format : AC-3
Format/Info : Audio Coding 3
Mode extension : CM (complete main)
Codec ID : 2000
Duration : 1h 40mn
Bit rate mode : Constant
Bit rate : 448 Kbps
Channel(s) : 6 channels
Channel positions : Front: L C R, Side: L R, LFE
Sampling rate : 48.0 KHz
Bit depth : 16 bits
Stream size : 323 MiB (22%)
Alignment : Split accross interleaves
Interleave, duration : 42 ms (1.00 video frame)
Interleave, preload duration : 500 ms
Download / Скачать

Хотите скачать бесплатно? Зарегистрируйтесь на сайте (ссылка на регистрацию). Pirat.ca - самый быстрый торрент трекер в рунете!

Как скачивать  ·   Что такое торрент  ·   Рейтинг и ограничения

Пост 11-Май-2014 12:18 (спустя 13 часов)

Топик был перенесен из форума Наше кино (Трюм) в форум Российские фильмы
kugesan
 

KIRST

Корсар

Пост 26-Апр-2015 19:38 (спустя 11 месяцев 15 дней)

[Q] 

СПАСИБО. Супер!
[Профиль]  [ЛС] 

msss

Морской Волк

Пост 25-Окт-2015 18:56 (спустя 5 месяцев 28 дней)

[Q] 

Говнокомедия, не знаю как я умудрился её досмотреть! dk
[Профиль]  [ЛС] 

platon18

Гроза морей

Пост 04-Ноя-2015 09:45 (спустя 9 дней)

[Q] 

позавчера смотрел по ТВ, так и не понял где комедия
[Профиль]  [ЛС] 
Показать сообщения:    
Ответить на тему

Текущее время: Сегодня 14:35

Часовой пояс: GMT + 4



Вы не можете начинать темы
Вы не можете отвечать на сообщения
Вы не можете редактировать свои сообщения
Вы не можете удалять свои сообщения
Вы не можете голосовать в опросах
Вы не можете прикреплять файлы к сообщениям
Вы не можете скачивать файлы

▼ Вниз