ML
     
  Уважаемый Гость!
Вы можете поддержать проект и зарегистрироваться у наших партнеров - онлайн-стратегия MyLands. При регистрации в игре Вы получите код, который сможете активировать после регистрации на pirat.ca и получить 1000 дублонов.

Ваш код:
59354507ba913a0948d1a8f2e30f2e04c4cd7b9b
 
     

Рябиновый вальс (Алёна Семёнова, Александр Смирнов (III)) [2009 г., Драма, история, ВОВ, DVDRip]

Ответить на тему
 
Автор
Сообщение

Пост 11-Май-2014 14:18

[Q] 

cergo

Гроза морей

-Рябиновый вальс--

Производство: Россия, ООО «Кинопрограмма XXI век», ООО «ТМ-фильм»
Режиссер: Алёна Семёнова, Александр Смирнов (III)
Жанр: Драма, история, ВОВ
Год выпуска: 2009 г.
Продолжительность: 01:38:04
Российская премьера: 29 апреля 2010, «Мост-медиа»
В ролях: Карина Андоленко, Сергей Горобченко, Владислав Ветров, Леонид Бичевин, Елизавета Арзамасова, Сюзанна Акежева, Валерия Ланская, Дарья Мельникова, Мария Бердинских, Полина Ражникова-Описание: Сценарий основан на реальных событиях периода Великой Отечественной войны. Это история о подвиге юных минеров, которые ценой своей жизни обезвреживали минные поля и дороги. В соответствии с постановлением Госкомитета обороны в 1944-1946 годах на территории Вологодской области проводились работы по разминированию Оштинского района, освобожденного от немцев. Были подготовлены минеры - в основном 17-20-летние девушки. Тут рождается яркая и короткая любовь инструктора Алексея и молодой вдовы с ребенком Полины. Неожиданно возвращается живым с фронта муж Полины Егор. Извещение о его гибели было ошибочным.-
Качество видео: DVDRip
Контейнер: AVI
Видео кодек: XviD
Аудио кодек: MP3
Видео: 720x384 (1.88:1), 25 fps, XviD MPEG-4 ~1757 kbps avg, 0.25 bit/pixel
Аудио: 48 kHz, Microsoft MPEG, 2 ch, ~192.00 kbps avg
Cубтитры: отсутствуют
Общее
Полное имя : D:\Архив\Фильмы\Rjabinovyj.vals.2009.XviD.DVDRip.avi
Формат : AVI
Формат/Информация : Audio Video Interleave
Размер файла : 1,34 Гбайт
Продолжительность : 1 ч. 38 м.
Общий поток : 1956 Кбит/сек
Программа кодирования : VirtualDubMod 1.5.4.1 (build 2178/release)
Библиотека кодирования : VirtualDubMod build 2178/release
Видео
Идентификатор : 0
Формат : MPEG-4 Visual
Профиль формата : Advanced [email protected]
Параметр BVOP формата : Нет
Параметр QPel формата : Нет
Параметр GMC формата : Без точки перехода
Параметр матрицы формата : Выборочная
Идентификатор кодека : XVID
Идентификатор кодека/Подсказка : XviD
Продолжительность : 1 ч. 38 м.
Битрейт : 1757 Кбит/сек
Ширина : 720 пикселей
Высота : 384 пикселя
Соотношение сторон : 1,85:1
Частота кадров : 25,000 кадров/сек
Цветовое пространство : YUV
Субдискретизация насыщенности : 4:2:0
Битовая глубина : 8 бит
Тип развёртки : Прогрессивная
Метод сжатия : С потерями
Бит/(Пиксели*Кадры) : 0.254
Размер потока : 1,20 Гбайт (90%)
Библиотека кодирования : XviD 1.2.1 (UTC 2008-12-04)
Аудио
Идентификатор : 1
Формат : MPEG Audio
Версия формата : Version 1
Профиль формата : Layer 2
Идентификатор кодека : 50
Продолжительность : 1 ч. 38 м.
Вид битрейта : Постоянный
Битрейт : 192 Кбит/сек
Каналы : 2 канала
Частота : 48,0 КГц
Метод сжатия : С потерями
Размер потока : 135 Мбайт (10%)
Выравнивание : Соединение по промежуткам
Продолжительность промежутка : 80 мс. (2,00 видеокадра)
Время предзагрузки промежутка : 504 мс.
Download / Скачать

Хотите скачать бесплатно? Зарегистрируйтесь на сайте (ссылка на регистрацию). Pirat.ca - самый быстрый торрент трекер в рунете!

Как скачивать  ·   Что такое торрент  ·   Рейтинг и ограничения

Пост 11-Май-2014 16:26 (спустя 2 часа 8 минут)

Топик был перенесен из форума Наше кино (Трюм) в форум Российские фильмы
kugesan
 

viktor41

Шкипер

Пост 11-Май-2014 18:02 (спустя 3 часа)

[Q] 

cergo, Спасибо !
[Профиль]  [ЛС] 

cergo ®

Гроза морей

20035

Пост 11-Май-2014 18:27 (спустя 25 минут)

[Q] 

533660cergo, Спасибо !
aa az
[Профиль]  [ЛС] 

AHDPUXA

Лоцман

Пост 11-Май-2014 22:01 (спустя 3 часа)

[Q] 

Не знал, что Вологда была оккупирована немцами.
[Профиль]  [ЛС] 
Показать сообщения:    
Ответить на тему

Текущее время: Сегодня 16:11

Часовой пояс: GMT + 4



Вы не можете начинать темы
Вы не можете отвечать на сообщения
Вы не можете редактировать свои сообщения
Вы не можете удалять свои сообщения
Вы не можете голосовать в опросах
Вы не можете прикреплять файлы к сообщениям
Вы не можете скачивать файлы

▼ Вниз