ML
     
  Уважаемый Гость!
Вы можете поддержать проект и зарегистрироваться у наших партнеров - онлайн-стратегия MyLands. При регистрации в игре Вы получите код, который сможете активировать после регистрации на pirat.ca и получить 1000 дублонов.

Ваш код:
74c28610d77aaac24ba694c4128f3b9b46b04220
 
     

Куда уходит любовь (Андрей Селиванов) [2014 г., Мелодрама, SATRip]

Ответить на тему
 
Автор
Сообщение

Пост 11-Май-2014 21:53

[Q] 

Resident

-Куда уходит любовь-- Производство: Россия, кинокомпания «Русское»
Режиссер: Андрей Селиванов
Жанр: Мелодрама
Год выпуска: 2014 г.
Продолжительность: 01:34:42
Российская премьера: 2014
В ролях: Мария Куликова, Сергей Астахов, Евгений Сидихин, Илья Коробко, Марина Волкова, Александр Левин (II), Людмила Чиркова-Описание: В жизни Натальи царит гармония и благополучие. Героиня работает учительницей в школе, счастливо замужем вторым браком за бизнесменом Стасом, а ее сын Ваня учится в институте.Но за счастливым фасадом кроются тайны, которые не удастся скрывать вечно. Однажды Наталья узнаёт, что муж ведет двойную жизнь и за ее спиной встречается с другой женщиной. Героиня шокирована предательством, но вся правда приводит Наталью в ужас: любовницей Стаса оказывается невеста ее сына Вани..-
Качество видео: SATRip
Контейнер: AVI
Видео кодек: XviD
Аудио кодек: MP3
Видео: 704x384 (1.83:1), 25 fps, XviD MPEG-4 ~1494 kbps avg, 0.22 bit/pixel
Аудио: 48 kHz, MPEG Layer 3, 2 ch, ~128.00 kbps avg
Cубтитры: отсутствуют
General
Complete name : W:\Kuda.uhodit.ljubov'.(2014).XviD.SATRip.avi
Format : AVI
Format/Info : Audio Video Interleave
File size : 1.08 GiB
Duration : 1h 34mn
Overall bit rate : 1 633 Kbps
Writing application : VirtualDubMod 1.5.10.2 (build 2540/release)
Writing library : VirtualDub build 34703/release
Video
ID : 0
Format : MPEG-4 Visual
Format profile : Advanced [email protected]
Format settings, BVOP : Yes
Format settings, QPel : No
Format settings, GMC : No warppoints
Format settings, Matrix : Default (MPEG)
Muxing mode : Packed bitstream
Codec ID : XVID
Codec ID/Hint : XviD
Duration : 1h 34mn
Bit rate : 1 495 Kbps
Width : 704 pixels
Height : 384 pixels
Display aspect ratio : 16:9
Frame rate : 25.000 fps
Color space : YUV
Chroma subsampling : 4:2:0
Bit depth : 8 bits
Scan type : Progressive
Bits/(Pixel*Frame) : 0.221
Stream size : 1 013 MiB (92%)
Writing library : XviD 64
Audio
ID : 1
Format : MPEG Audio
Format version : Version 1
Format profile : Layer 3
Mode : Joint stereo
Mode extension : MS Stereo
Codec ID : 55
Codec ID/Hint : MP3
Duration : 1h 34mn
Bit rate mode : Constant
Bit rate : 128 Kbps
Channel(s) : 2 channels
Sampling rate : 48.0 KHz
Stream size : 86.7 MiB (8%)
Alignment : Aligned on interleaves
Interleave, duration : 40 ms (1.00 video frame)
Interleave, preload duration : 504 ms
Writing library : LAME3.90.3ЄЄЄЄЄЄЄЄЄЄ
Download / Скачать

Хотите скачать бесплатно? Зарегистрируйтесь на сайте (ссылка на регистрацию). Pirat.ca - самый быстрый торрент трекер в рунете!

Как скачивать  ·   Что такое торрент  ·   Рейтинг и ограничения

Пост 12-Май-2014 07:02 (спустя 9 часов)

Топик был перенесен из форума Наше кино (Трюм) в форум Новинки (HD|DVD|BD| TV|SAT|PDTV| - Rips)
erchine
 

ara1205

69738

Пост 14-Май-2014 08:56 (спустя 2 дня 11 часов)

[Q] 

И тишина, и не слова про фильм.
[Профиль]  [ЛС] 

alecs250278

Штурман

Пост 18-Май-2014 01:53 (спустя 3 дня)

[Q] 

все ушли искать любовь!!!!!!
[Профиль]  [ЛС] 

Пост 15-Июн-2014 18:10 (спустя 28 дней)

Топик был перенесен из форума Новинки (HD|DVD|BD| TV|SAT|PDTV| - Rips) в форум Российские фильмы
kugesan
 
Показать сообщения:    
Ответить на тему

Текущее время: Сегодня 09:58

Часовой пояс: GMT + 4



Вы не можете начинать темы
Вы не можете отвечать на сообщения
Вы не можете редактировать свои сообщения
Вы не можете удалять свои сообщения
Вы не можете голосовать в опросах
Вы не можете прикреплять файлы к сообщениям
Вы не можете скачивать файлы

▼ Вниз