ML
     
  Уважаемый Гость!
Вы можете поддержать проект и зарегистрироваться у наших партнеров - онлайн-стратегия MyLands. При регистрации в игре Вы получите код, который сможете активировать после регистрации на pirat.ca и получить 1000 дублонов.

Ваш код:
4399ab8611ee7f8a22949d2ee7634160dd2db7e0
 
     

Не делайте бисквиты в плохом настроении (Алексей Горовацкий, Игорь Волосецкий) [2014 г., Драма, SATRip]

Ответить на тему
 
Автор
Сообщение

Пост 14-Май-2014 09:20

[Q] 

LPPI

-Не делайте бисквиты в плохом настроении- Производство: Россия
Год выпуска: 2014 г.
Жанр: Драма
Продолжительность: 01:09:03
Перевод: Не требуется-Режиссер: Алексей Горовацкий, Игорь Волосецкий
В ролях: Фёдор Степанов, Ирэна Дубровская-Описание: Героиня - современная жительница Петербурга, женщина бальзаковского возраста. Она считает себя неудачницей, а судьбу - не сложившейся. Случайная встреча с провинциалом сумеет объяснить ей, какая это ценность - жизнь....- -Качество видео: SATRip
Контейнер: AVI
Видео кодек: XviD
Аудио кодек: AC3
Видео: 656x384 (1.71:1), 25 fps, XviD build 50 ~1216 kbps avg, 0.19 bit/pixel
Аудио: 48 kHz, AC3 Dolby Digital, 2/0 (L,R) ch, ~192 kbps
Cубтитры: отсутствуют
General
Complete name : D:\Ne.delajte.bezkvity.v.plohom.nastroenii.2014.SATRip.700.avi
Format : AVI
Format/Info : Audio Video Interleave
File size : 700 MiB
Duration : 1h 9mn
Overall bit rate : 1 418 Kbps
Writing application : VirtualDubMod 1.5.10.3 | www.virtualdub-fr.org || (build 2550/release)
Writing library : VirtualDubMod build 2550/release
Video
ID : 0
Format : MPEG-4 Visual
Format profile : Advanced [email protected]
Format settings, BVOP : 1
Format settings, QPel : No
Format settings, GMC : No warppoints
Format settings, Matrix : Default (MPEG)
Codec ID : XVID
Codec ID/Hint : XviD
Duration : 1h 9mn
Bit rate : 1 216 Kbps
Width : 656 pixels
Height : 384 pixels
Display aspect ratio : 1.708
Frame rate : 25.000 fps
Color space : YUV
Chroma subsampling : 4:2:0
Bit depth : 8 bits
Scan type : Progressive
Compression mode : Lossy
Bits/(Pixel*Frame) : 0.193
Stream size : 601 MiB (86%)
Writing library : XviD 1.2.1 (UTC 2008-12-04)
Audio
ID : 1
Format : AC-3
Format/Info : Audio Coding 3
Mode extension : CM (complete main)
Format settings, Endianness : Big
Codec ID : 2000
Duration : 1h 9mn
Bit rate mode : Constant
Bit rate : 192 Kbps
Channel(s) : 2 channels
Channel positions : Front: L R
Sampling rate : 48.0 KHz
Bit depth : 16 bits
Compression mode : Lossy
Stream size : 94.8 MiB (14%)
Alignment : Split accross interleaves
Interleave, duration : 40 ms (1.00 video frame)
Interleave, preload duration : 500 ms
Download / Скачать

Хотите скачать бесплатно? Зарегистрируйтесь на сайте (ссылка на регистрацию). Pirat.ca - самый быстрый торрент трекер в рунете!

Как скачивать  ·   Что такое торрент  ·   Рейтинг и ограничения

Пост 14-Май-2014 09:23 (спустя 2 минуты)

Топик был перенесен из форума Оформление раздач (R.G. All Films) в форум Новинки (HD|DVD|BD| TV|SAT|PDTV| - Rips)
ara1205
 
Показать сообщения:    
Ответить на тему

Текущее время: Сегодня 10:44

Часовой пояс: GMT + 4



Вы не можете начинать темы
Вы не можете отвечать на сообщения
Вы не можете редактировать свои сообщения
Вы не можете удалять свои сообщения
Вы не можете голосовать в опросах
Вы не можете прикреплять файлы к сообщениям
Вы не можете скачивать файлы

▼ Вниз