ML
     
  Уважаемый Гость!
Вы можете поддержать проект и зарегистрироваться у наших партнеров - онлайн-стратегия MyLands. При регистрации в игре Вы получите код, который сможете активировать после регистрации на pirat.ca и получить 1000 дублонов.

Ваш код:
aec9a4a936117fb450ba69e519991a0465404b1d
 
     

Испытательный срок (Игорь Нурисламов) [2014 г., комедия, мелодрама, SATRip]

Ответить на тему
 
Автор
Сообщение

Пост 22-Май-2014 15:17

[Q] 

LPPI

-Испытательный срок- Производство: Россия
Жанр: комедия, мелодрама
Год выпуска: 2014 г.
Продолжительность: 01:35:37-Режиссер: Игорь Нурисламов
В ролях: Михаил Тарабукин, Поля Полякова, Роман Притула, Андрей Аксёнов, Артём Анчуков, Елена Мартыненко, Дмитрий Комков, Даниил Комков, Алексей Фокин, Егор Бакулин, Геша Меньшиков, Полина Красавина, Оксана Скакун, Алёна Кучкова, Сергей Уманов, Дмитрий Макеев, Виктор Выбриенко, Полина Воронова-Описание: Матери-одиночке позарез надо найти работу. Дайте ей только шанс и она перевернет мир! Но - ветрянка у двух ее близнецов рушит все планы. Новая работа могла бы разом решить ее проблемы. Но как быть, если начальство не переносит слов «больничный-дети» и ни за что не возьмет на работу мать двоих малышей? «Багаж» решено скрыть, а достоинства приукрасить. Ей бы только продержаться испытательный срок, который совпал с 21 днем карантина. На помощь отчаянной мамочке приходит сосед, инфантильный и безответственный разгильдяй.-Сэмпл-Качество видео: SATRip
Контейнер: AVI
Видео кодек: DivX
Аудио кодек: MP3
Видео: 720x400 (1.80:1), 25 fps, DivX Codec 6.8.5/6.9.1 ~1896 kbps avg, 0.26 bit/pixel
Аудио: 48 kHz, MPEG Layer 3, 2 ch, ~128.00 kbps avg
Cубтитры: отсутствуют
General
Complete name : D:\Ispytatelnyj.srok.SATRip.avi
Format : AVI
Format/Info : Audio Video Interleave
File size : 1.36 GiB
Duration : 1h 35mn
Overall bit rate : 2 034 Kbps
Writing library : VirtualDub build 35491/release
Video
ID : 0
Format : MPEG-4 Visual
Format settings, BVOP : 1
Format settings, QPel : No
Format settings, GMC : No warppoints
Format settings, Matrix : Default (H.263)
Muxing mode : Packed bitstream
Codec ID : DX50
Codec ID/Hint : DivX 5
Duration : 1h 35mn
Bit rate : 1 896 Kbps
Width : 720 pixels
Height : 400 pixels
Display aspect ratio : 16:9
Frame rate : 25.000 fps
Color space : YUV
Chroma subsampling : 4:2:0
Bit depth : 8 bits
Scan type : Progressive
Compression mode : Lossy
Bits/(Pixel*Frame) : 0.263
Stream size : 1.27 GiB (93%)
Writing library : DivX 6.8.5 (UTC 2009-08-20)
Audio
ID : 1
Format : MPEG Audio
Format version : Version 1
Format profile : Layer 3
Mode : Joint stereo
Mode extension : MS Stereo
Codec ID : 55
Codec ID/Hint : MP3
Duration : 1h 35mn
Bit rate mode : Constant
Bit rate : 128 Kbps
Channel(s) : 2 channels
Sampling rate : 48.0 KHz
Compression mode : Lossy
Stream size : 87.5 MiB (6%)
Alignment : Split accross interleaves
Interleave, duration : 40 ms (1.00 video frame)
Interleave, preload duration : 500 ms
Download / Скачать

Хотите скачать бесплатно? Зарегистрируйтесь на сайте (ссылка на регистрацию). Pirat.ca - самый быстрый торрент трекер в рунете!

Как скачивать  ·   Что такое торрент  ·   Рейтинг и ограничения

Пост 22-Май-2014 15:50 (спустя 32 минуты)

Топик был перенесен из форума Наше кино (Трюм) в форум Новинки (HD|DVD|BD| TV|SAT|PDTV| - Rips)
kugesan
 

mrdim-CHEHOV

Флибустьер

Пост 22-Май-2014 21:54 (спустя 6 часов)

[Q] 

Автору респект!!! глянем...

_________________
Все будет не так, как мы решим. Все будет тогда, когда мы решимся.
[Профиль]  [ЛС] 

femaxx

Корсар

Пост 25-Май-2014 01:55 (спустя 2 дня 4 часа)

[Q] 

Супер! Спасибо!!!
[Профиль]  [ЛС] 

ягжин

Гроза морей

Пост 25-Май-2014 08:48 (спустя 6 часов)

[Q] 

Спасибо! Спасибо!!!
[Профиль]  [ЛС] 

sk68

Шкипер

Пост 25-Май-2014 15:09 (спустя 6 часов)

[Q] 

Спасибо!!! берем Лови бочку
[Профиль]  [ЛС] 

dr.archie80

Морской Волк

Пост 26-Май-2014 22:25 (спустя 1 день 7 часов)

[Q] 

Автору респект!!! Спасибо.
[Профиль]  [ЛС] 

Vampirella

Штурман

Пост 27-Май-2014 22:57 (спустя 1 день)

[Q] 

Ахаха что у нее с глазами на обложке??
[Профиль]  [ЛС] 

AlexeyE30

Штурман

Пост 31-Май-2014 01:21 (спустя 3 дня)

[Q] 

540131Ахаха что у нее с глазами на обложке??
да у неё и на 4ом скрине беда с ними какая то... ))
А кроме глаз меня и логотип какого то семейного канала в углу смущает.
[Профиль]  [ЛС] 

Scorpion7474

Флибустьер

Пост 25-Сен-2014 15:30 (спустя 3 месяца 25 дней)

[Q] 

Лови бочку
[Профиль]  [ЛС] 

hohol541

Корсар

Пост 28-Окт-2014 15:43 (спустя 1 месяц 3 дня)

[Q] 

Наше современное кино как фастфуд
[Профиль]  [ЛС] 

lexaspirit

Пост 30-Янв-2016 20:45 (спустя 1 год 3 месяца)

[Q] 

А мне понравился. Посмотреть можно.

_________________
-------------------- ----------------------
[Профиль]  [ЛС] 
Показать сообщения:    
Ответить на тему

Текущее время: Сегодня 02:22

Часовой пояс: GMT + 4



Вы не можете начинать темы
Вы не можете отвечать на сообщения
Вы не можете редактировать свои сообщения
Вы не можете удалять свои сообщения
Вы не можете голосовать в опросах
Вы не можете прикреплять файлы к сообщениям
Вы не можете скачивать файлы

▼ Вниз