ML
     
  Уважаемый Гость!
Вы можете поддержать проект и зарегистрироваться у наших партнеров - онлайн-стратегия MyLands. При регистрации в игре Вы получите код, который сможете активировать после регистрации на pirat.ca и получить 1000 дублонов.

Ваш код:
8b29d0f8cd61fe457e59e7df0aa1fab41a2b88b9
 
     

Черный квадрат (Юрий Мороз) [1992 г., криминал, детектив, DVDRip]

Ответить на тему
 
Автор
Сообщение

Пост 30-Май-2014 00:21

[Q] 

Sigel-1

Шкипер

-Черный квадрат -- Производство: Россия FTM Entertainment Ltd., Gernica, Студия Горького, Шанс, Холдниг Южный Регион
Режиссер: Юрий Мороз
Жанр: криминал, детектив
Год выпуска: 1992 г.
Продолжительность: 01:55:04
Дата выхода DVD: 11 февраля 2010
В ролях: Дмитрий Харатьян, Виталий Соломин, Елена Яковлева, Василий Лановой, Татьяна Кравченко, Армен Джигарханян, Эммануил Виторган, Алла Балтер, Дарья Мороз, Владимир Талашко...-Описание: Группа оперативников занимается расследованием, на первый взгляд, бытового убийства. Следователь Александр Турецкий понимает, что нити дела ведут в высшие эшелоны военного руководства нашей страны, и каждый следующий шаг может стать для сыщиков последним. Но оперативники, рискуя жизнью, продолжают свою работу…-Сэмпл КиноПоиск
Качество видео: DVDRip
Контейнер: AVI
Видео кодек: XviD
Аудио кодек: AC3
Видео: 688x512 (4:3), 25 fps, XviD ~ 1610 kbps avg, 0.183 bit/pixel
Аудио: 48 kHz, Dolby Digital AC3 2.0, 192 kbps
Cубтитры: отсутствуют
Общее
Полное имя : Chernyy.kvadrat.1992.DVDRip
Формат : AVI
Формат/Информация : Audio Video Interleave
Размер файла : 1,46 Гбайт
Продолжительность : 1 ч. 55 м.
Общий поток : 1812 Кбит/сек
Программа кодирования : VirtualDubModRus 1.5.10.2 (build 2542/release)
Библиотека кодирования : VirtualDubMod build 2542/release
Видео
Идентификатор : 0
Формат : MPEG-4 Visual
Профиль формата : Advanced [email protected]
Параметр BVOP формата : 1
Параметр QPel формата : Нет
Параметр GMC формата : Без точки перехода
Параметр матрицы формата : Выборочная
Идентификатор кодека : XVID
Идентификатор кодека/Подсказка : XviD
Продолжительность : 1 ч. 55 м.
Битрейт : 1610 Кбит/сек
Ширина : 688 пикселей
Высота : 512 пикселей
Соотношение сторон : 4:3
Частота кадров : 25,000 кадров/сек
Цветовое пространство : YUV
Субдискретизация насыщенности : 4:2:0
Битовая глубина : 8 бит
Тип развёртки : Прогрессивная
Метод сжатия : С потерями
Бит/(Пиксели*Кадры) : 0.183
Размер потока : 1,29 Гбайт (89%)
Библиотека кодирования : XviD 73
Аудио
Идентификатор : 1
Формат : AC-3
Формат/Информация : Audio Coding 3
Расширение режима : CM (complete main)
Параметр Endianness формата : Big
Идентификатор кодека : 2000
Продолжительность : 1 ч. 55 м.
Вид битрейта : Постоянный
Битрейт : 192 Кбит/сек
Каналы : 2 канала
Расположение каналов : Front: L R
Частота : 48,0 КГц
Битовая глубина : 16 бит
Метод сжатия : С потерями
Размер потока : 158 Мбайт (11%)
Выравнивание : Разделение по промежуткам
Продолжительность промежутка : 40 мс. (1,00 видеокадр)
Время предзагрузки промежутка : 500 мс
Download / Скачать

Хотите скачать бесплатно? Зарегистрируйтесь на сайте (ссылка на регистрацию). Pirat.ca - самый быстрый торрент трекер в рунете!

Как скачивать  ·   Что такое торрент  ·   Рейтинг и ограничения

ara1205

69741

Пост 30-Май-2014 09:46 (спустя 9 часов)

[Q] 

Спасибо за релиз. Встаньте пожалуйста на раздачу.
[Профиль]  [ЛС] 

Sigel-1 ®

Шкипер

3144

Пост 30-Май-2014 11:11 (спустя 1 час 25 минут)

[Q] 

ara1205, я уже на раздаче

_________________
[Профиль]  [ЛС] 

Пост 30-Май-2014 11:43 (спустя 31 минута)

Топик был перенесен из форума Наше кино (Трюм) в форум Российские фильмы
ara1205
 
Показать сообщения:    
Ответить на тему

Текущее время: Сегодня 21:20

Часовой пояс: GMT + 4



Вы не можете начинать темы
Вы не можете отвечать на сообщения
Вы не можете редактировать свои сообщения
Вы не можете удалять свои сообщения
Вы не можете голосовать в опросах
Вы не можете прикреплять файлы к сообщениям
Вы не можете скачивать файлы

▼ Вниз