ML
     
  Уважаемый Гость!
Вы можете поддержать проект и зарегистрироваться у наших партнеров - онлайн-стратегия MyLands. При регистрации в игре Вы получите код, который сможете активировать после регистрации на pirat.ca и получить 1000 дублонов.

Ваш код:
2a3da67fd641d69eeebb7cb965232435a70eaa24
 
     

Америкэн бой (Борис Квашнев) [1992 г., Боевик, триллер, криминал, SATRip]

Ответить на тему
 
Автор
Сообщение

Пост 31-Май-2014 00:57

[Q] 

Sigel-1

Шкипер

-Америкэн бой-- Производство: Украина Студия: Lybid, Укртелефильм, Univex
Режиссер: Борис Квашнев
Жанр: Боевик, триллер, криминал
Год выпуска: 1992 г.
Продолжительность: 01:49:04
В ролях: Александр Песков, Владимир Гостюхин, Олег Рогачёв, Анатолий Хостикоев, Анна Униговская, Галина Мороз, Валерий Свищёв, Артур Ли, Гиви (Гия) Лежава, Сергей Пономаренко, Сергей Асовский, Игорь Воробьев, Олег Игнатьев, Борис Калягин, Владимир Герасев, Александр Рокшак, Андрей Колесник, Спиридон Ксандолупо...-Описание: После афганского плена Николай Найденов, бывший детдомовец, попадает в США, устраивается на работу инструктором в один из спортивных клубов, женится и получает американское гражданство. Жизнь складывается как нельзя лучше.
Через некоторое время он приезжает на свою бывшую родину к армейскому другу Сергею и узнает от его жены, что Сергей убит по заказу главарей одного из кланов местной мафии. На следующий день боевики, после зверских пыток, несколькими ударами в живот убивают и беременную жену Сергея…-КиноПоиск
Качество видео: SATRip
Контейнер: AVI
Видео кодек: XviD
Аудио кодек: AC3
Видео: MPEG-4 Visual at 1 707 Kbps: 560 x 416 (1.346) at 25.000 fps, 0.29 Бит/Пиксели
Аудио: AC-3 at 192 Kbps: 2 channels, 48.0 KHz
Cубтитры: отсутствуют
General
Полное имя : D:\фильмы\American_boy_1992_SATRip_1400_Один 777.avi
Формат : AVI
Формат/Информация : Audio Video Interleave
Размер файла : 1.45 GiB
Продолжительность : 1h 49mn
Общий поток : 1 908 Kbps
Программа кодирования : VirtualDubMod 1.5.10.3 | www.virtualdub-fr.org || (build 2550/release)
Библиотека кодирования : VirtualDubMod build 2550/release
Video
Идентификатор : 0
Формат : MPEG-4 Visual
Профиль формата : Advanced [email protected]
Параметр BVOP формата : 1
Параметр QPel формата : No
Параметр GMC формата : No warppoints
Параметр матрицы формата : Default (MPEG)
Идентификатор кодека : XVID
Идентификатор кодека/Подсказка : XviD
Продолжительность : 1h 49mn
Битрейт : 1 707 Kbps
Ширина : 560 pixels
Высота : 416 pixels
Соотношение сторон : 4:3
Частота кадров : 25.000 fps
Цветовое пространство : YUV
Субдискретизация насыщенности : 4:2:0
Битовая глубина : 8 bits
Тип развёртки : Progressive
Метод сжатия : Lossy
Бит/(Пиксели*Кадры) : 0.293
Размер потока : 1.30 GiB (89%)
Библиотека кодирования : XviD 1.2.1 (UTC 2008-12-04)
Audio
Идентификатор : 1
Формат : AC-3
Формат/Информация : Audio Coding 3
Расширение режима : CM (complete main)
Параметр Endianness формата : Big
Идентификатор кодека : 2000
Продолжительность : 1h 49mn
Вид битрейта : Constant
Битрейт : 192 Kbps
Каналы : 2 channels
Расположение каналов : Front: L R
Частота : 48.0 KHz
Битовая глубина : 16 bits
Метод сжатия : Lossy
Размер потока : 150 MiB (10%)
Выравнивание : Split accross interleaves
Продолжительность промежутка : 40 ms (1.00 video frame)
Время предзагрузки промежутка : 500 ms
Download / Скачать

Хотите скачать бесплатно? Зарегистрируйтесь на сайте (ссылка на регистрацию). Pirat.ca - самый быстрый торрент трекер в рунете!

Как скачивать  ·   Что такое торрент  ·   Рейтинг и ограничения



Последний раз редактировалось: Sigel-1 (2014-06-01 22:55), всего редактировалось 2 раз(а)

egokdm

Гроза морей

1362

Пост 31-Май-2014 23:57 (спустя 22 часа)

[Q] 

cy
[Профиль]  [ЛС] 

Пост 02-Июн-2014 06:49 (спустя 1 день 6 часов)

Топик был перенесен из форума Наше кино (Трюм) в форум Российские фильмы
erchine
 
Показать сообщения:    
Ответить на тему

Текущее время: Сегодня 01:10

Часовой пояс: GMT + 4



Вы не можете начинать темы
Вы не можете отвечать на сообщения
Вы не можете редактировать свои сообщения
Вы не можете удалять свои сообщения
Вы не можете голосовать в опросах
Вы не можете прикреплять файлы к сообщениям
Вы не можете скачивать файлы

▼ Вниз