ML
     
  Уважаемый Гость!
Вы можете поддержать проект и зарегистрироваться у наших партнеров - онлайн-стратегия MyLands. При регистрации в игре Вы получите код, который сможете активировать после регистрации на pirat.ca и получить 1000 дублонов.

Ваш код:
156f85568ae63e45e07ac461c96a83ba1a876b0a
 
     

Синевир / Synevir (Александр Алешечкин, Вячеслав Алешечкин) [2013 г., Ужасы, DVDRip]

Ответить на тему
 
Автор
Сообщение

Пост 04-Июн-2014 20:04

[Q] 

LPPI

-Синевир / Synevir-«Там кто-то есть...»- Производство: США, Украина, inQ
Год выпуска: 2013 г.
Жанр: Ужасы
Продолжительность: 01:13:11
Мировая премьера: 11 января 2013
Российская премьера: 3 апреля 2014, «Top Film Distribution»
Перевод: Не требуется-Режиссер: Александр Алешечкин, Вячеслав Алешечкин
В ролях: Сергей Романюк, Алена Лавренюк, Илья Рудаков, Богдан Юсипчук, Зоряна Марченко, Константин Войтенко, Филипп Козлов, Мила Сивацкая, Игорь Савинский, Юрий Фреган-Описание: Советский Союз, конец 70-х. На лекции общества «Знание» в Киеве пожилой профессор рассказывает о странных существах, описанных еще Марко Поло, которые обитали также и на территории Древней Руси…
Советские Карпаты. Небольшой хуторок, затерянный в лесах возле горного озера Синевир. Утром, тайком от родителей из дома выбираются на рыбалку дети — брат и сестра Сашко и Иванка, они идут на Синевир. Поначалу дети заняты ловлей рыбы и спорами о том, у кого будет больше улов. Неожиданно в лесу слышится крик «Ау!». Иванка и Сашко решают, что это заблудились туристы и им нужно помочь. Однако никаких туристов там нет…- -Качество видео: DVDRip
Контейнер: AVI
Видео кодек: XviD
Аудио кодек: AC3
Видео: 720x384 (1.88:1), 25 fps, XviD build 73 ~2392 kbps avg, 0.35 bit/pixel
Аудио: 48 kHz, AC3 Dolby Digital, 3/2 (L,C,R,l,r) + LFE ch, ~448 kbps
Cубтитры: отсутствуют
General
Complete name : D:\Sinevir.2013.O.DVDRip.avi
Format : AVI
Format/Info : Audio Video Interleave
File size : 1.46 GiB
Duration : 1h 13mn
Overall bit rate : 2 850 Kbps
Writing application : VirtualDubMod 1.5.10.3 | www.virtualdub-fr.org || (build 2550/release)
Writing library : VirtualDubMod build 2550/release
Video
ID : 0
Format : MPEG-4 Visual
Format profile : Advanced [email protected]
Format settings, BVOP : 1
Format settings, QPel : No
Format settings, GMC : No warppoints
Format settings, Matrix : Custom
Codec ID : XVID
Codec ID/Hint : XviD
Duration : 1h 13mn
Bit rate : 2 392 Kbps
Width : 720 pixels
Height : 384 pixels
Display aspect ratio : 1.85:1
Frame rate : 25.000 fps
Color space : YUV
Chroma subsampling : 4:2:0
Bit depth : 8 bits
Scan type : Progressive
Compression mode : Lossy
Bits/(Pixel*Frame) : 0.346
Stream size : 1.22 GiB (84%)
Writing library : XviD 73
Audio
ID : 1
Format : AC-3
Format/Info : Audio Coding 3
Mode extension : CM (complete main)
Format settings, Endianness : Big
Codec ID : 2000
Duration : 1h 13mn
Bit rate mode : Constant
Bit rate : 448 Kbps
Channel(s) : 6 channels
Channel positions : Front: L C R, Side: L R, LFE
Sampling rate : 48.0 KHz
Bit depth : 16 bits
Compression mode : Lossy
Stream size : 234 MiB (16%)
Alignment : Split accross interleaves
Interleave, duration : 40 ms (1.00 video frame)
Interleave, preload duration : 500 ms
Download / Скачать

Хотите скачать бесплатно? Зарегистрируйтесь на сайте (ссылка на регистрацию). Pirat.ca - самый быстрый торрент трекер в рунете!

Как скачивать  ·   Что такое торрент  ·   Рейтинг и ограничения

Пост 04-Июн-2014 20:44 (спустя 39 минут)

Топик был перенесен из форума Зарубежное Кино (Трюм) в форум Новинки (HD|DVD|BD| TV|SAT|PDTV| - Rips)
kugesan
 

Han.M

Флибустьер

Пост 04-Июн-2014 21:33 (спустя 1 час 28 минут)

[Q] 

Судя по рейтингу - украинское г..но
[Профиль]  [ЛС] 

karbon742

Юнга

Пост 04-Июн-2014 21:52 (спустя 19 минут)

[Q] 

да кто его знает
[Профиль]  [ЛС] 

newheaven

Лоцман

Пост 05-Июн-2014 00:46 (спустя 2 часа 54 минуты)

[Q] 

злободневное кино, наверное не туристы, а бандеровцы, поэтому смотреть не хочется
[Профиль]  [ЛС] 

olipov

Легенда

Пост 05-Июн-2014 11:24 (спустя 10 часов)

[Q] 

как фильм? го*енцо?..
newheaven, dj где бандеровцы? вали на политфорум.
[Профиль]  [ЛС] 

bugor81

Лоцман

Пост 05-Июн-2014 15:11 (спустя 3 часа)

[Q] 

543478как фильм? го*енцо?..
newheaven, dj где бандеровцы? вали на политфорум.
100%
[Профиль]  [ЛС] 

Полтос

Флибустьер

Пост 06-Июн-2014 21:42 (спустя 1 день 6 часов)

[Q] 

543478как фильм? го*енцо?
Да ладно вы, как высокое художество или ужастик это воспринимать нельзя. А вот как историю, рассказанную пионером ночью после отбоя или у костра - вполне!) Должно же быть разнообразие в фильмах. Этот как раз из той части - проникнетесь атмосферой - прокатит, для тех кто не в теме (не был в пионерском лагере, не жил совковой жизнью) - нет...

_________________
Первый закон Прапорщика: Всё что поднимаемо - относительно!)
[Профиль]  [ЛС] 

Tramp

Корсар

96

Пост 07-Июн-2014 13:15 (спустя 15 часов)

[Q] 

Синевир... и скриншоты синие... Наверно фильм о то как после потребления синей жидкости для стекол, уходишь в виртуальный мир. А там и туристы с бандэровцами "ау" кричат.... но их нет!!?? be Как раз в стиле лагерных страшилок ca
P.S. После этого фильма бедняга Вир под камнем трепещет, а Синь в гробу слезы льет.
[Профиль]  [ЛС] 

Нэйтон

Флибустьер

Пост 09-Июн-2014 08:21 (спустя 1 день 19 часов)

[Q] 

На любителя , и то на один раз.... если заняться не чем....
А лучше dk чем смотреть......
[Профиль]  [ЛС] 

petr_vv86

Морской Волк

Пост 18-Июн-2014 18:02 (спустя 9 дней)

[Q] 

Синий вирт какой-то... Мать моя женщина...
[Профиль]  [ЛС] 

лысый 9999

Морской Волк

Пост 18-Июн-2014 18:40 (спустя 38 минут)

[Q] 

не стоит времени lol
[Профиль]  [ЛС] 

feldorius

Корсар

Пост 21-Июн-2014 13:46 (спустя 2 дня 19 часов)

[Q] 

Фигня редчайшая, что игра актеров, что само чудище....
[Профиль]  [ЛС] 

mosc

Лоцман

Пост 21-Июн-2014 14:04 (спустя 18 минут)

[Q] 

Это не ужасы, а любительское кино, без актерской игры.
[Профиль]  [ЛС] 

Selim

Корсар

Пост 06-Сен-2014 19:05 (спустя 2 месяца 15 дней)

[Q] 

Треш и угар :59:
[Профиль]  [ЛС] 

dambrina

Флибустьер

Пост 31-Окт-2014 00:04 (спустя 1 месяц 24 дня)

[Q] 

Спасибо!!!
[Профиль]  [ЛС] 

buzuvir

Корсар

Пост 14-Ноя-2014 22:58 (спустя 14 дней)

[Q] 

543478как фильм? го*енцо?..
newheaven, dj где бандеровцы? вали на политфорум.
aa

_________________
[Профиль]  [ЛС] 
Показать сообщения:    
Ответить на тему

Текущее время: Сегодня 22:01

Часовой пояс: GMT + 4



Вы не можете начинать темы
Вы не можете отвечать на сообщения
Вы не можете редактировать свои сообщения
Вы не можете удалять свои сообщения
Вы не можете голосовать в опросах
Вы не можете прикреплять файлы к сообщениям
Вы не можете скачивать файлы

▼ Вниз