ML
     
  Уважаемый Гость!
Вы можете поддержать проект и зарегистрироваться у наших партнеров - онлайн-стратегия MyLands. При регистрации в игре Вы получите код, который сможете активировать после регистрации на pirat.ca и получить 1000 дублонов.

Ваш код:
21acd5966619d49ad0b90c3305467b4646cc11a8
 
     

Статский советник (Филипп Янковский) [2005 г., детектив, DVDRip]

Ответить на тему
 
Автор
Сообщение

Пост 07-Июн-2014 17:47

[Q] 

Мархуз

-Статский советник-- Производство: Россия, Студия ТриТэ
Режиссер: Филипп Янковский
Жанр: детектив
Год выпуска: 2005 г.
Продолжительность: 03:11:19
В ролях: Олег Меньшиков, Никита Михалков, Константин Хабенский, Владимир Машков, Олег Табаков, Федор Бондарчук, Мария Миронова, Михаил Ефремов, Эмилия Спивак, Оксана Фандера, Алексей Горбунов-Описание: Российская империя, конец XIX века. В министерском вагоне курьерского поезда неизвестным убит бывший командир Отдельного корпуса жандармов, сибирский генерал-губернатор Храпов, направлявшийся через Москву к месту службы. Из донесения охраны следует, что Храпов был убит статским советником Эрастом Петровичем Фандориным, в чьи обязанности входило обеспечение безопасности генерал-губернатора во время его нахождения в Москве.На месте преступления убийцей был оставлен кинжал с загадочной аббревиатурой «БГ». Однако, по прибытии в Москву, сопровождение Храпова встречается с настоящим Фандориным и убеждается в том, что убийца лишь выдавал себя за статского советника.
Сам же Эраст Петрович приступает к незамедлительному расследованию. Он знает, что означают буквы «БГ» - это автограф членов таинственной Боевой группы. Ему известно, что только чиновники высшего уровня в Москве и Петербурге могли знать о доверенной ему миссии охранять Храпова. Куда же ведут нити этого преступления? Кто руководит загадочной «БГ»? Вскоре на помощь Фандорину из Петербурга прибывает сам вице-директор Департамента полиции князь Пожарский. С его появлением история принимает самый неожиданный поворот…-Качество видео: DVDRip
Контейнер: AVI
Видео кодек: XviD
Аудио кодек: MP3
Видео: 704x432; 1433 kbps; 25 fps; 0.188 bit/pixel
Аудио: 192 kbps; 2 ch; 48 kHz
Cубтитры: отсутствуют
Золотой орёл, 2006 год
Победитель :
Лучшая мужская роль (Никита Михалков)
Лучшая мужская роль второго плана (Константин Хабенский)
Номинации:
Лучший фильм
Лучшая женская роль второго плана (Мария Миронова)
Лучшая мужская роль второго плана (Владимир Машков)
Кинонаграды «MTV-Россия», 2006 год
Номинации:
Лучшая женская роль (Оксана Фандера)
Лучшая экранная команда
Лучший поцелуй (Оксана Фандера, Константин Хабенский)
Ника, 2006 год
Победитель :
Лучшая работа художника-постановщика
Номинации:
Лучшая мужская роль (Никита Михалков)
Лучшая женская роль второго плана (Оксана Фандера)
Кинотавр, 2005 год
Победитель :
Лучшая мужская роль (Никита Михалков)
Номинации:
Главный приз
General
Complete name : E:\Torrent\Statskiy sovetnik_[Pirat.ca].torrent.avi
Format : AVI
Format/Info : Audio Video Interleave
Format profile : OpenDML
File size : 2.19 GiB
Duration : 3h 11mn
Overall bit rate : 1 637 Kbps
Writing application : VirtualDubMod 1.5.10.2 (build 2540/release)
Comment : Rip by iriston
Video
ID : 0
Format : MPEG-4 Visual
Format profile : Advanced [email protected]
Format settings, BVOP : 1
Format settings, QPel : No
Format settings, GMC : No warppoints
Format settings, Matrix : Custom
Codec ID : XVID
Codec ID/Hint : XviD
Duration : 3h 11mn
Bit rate : 1 433 Kbps
Width : 704 pixels
Height : 432 pixels
Display aspect ratio : 16:10
Frame rate : 25.000 fps
Color space : YUV
Chroma subsampling : 4:2:0
Bit depth : 8 bits
Scan type : Progressive
Compression mode : Lossy
Bits/(Pixel*Frame) : 0.188
Stream size : 1.91 GiB (88%)
Writing library : XviD 1.2.1 (UTC 2008-12-04)
Audio
ID : 1
Format : MPEG Audio
Format version : Version 1
Format profile : Layer 3
Codec ID : 55
Codec ID/Hint : MP3
Duration : 3h 11mn
Bit rate mode : Constant
Bit rate : 192 Kbps
Channel(s) : 2 channels
Sampling rate : 48.0 KHz
Compression mode : Lossy
Stream size : 263 MiB (12%)
Alignment : Aligned on interleaves
Interleave, duration : 40 ms (1.00 video frame)
Interleave, preload duration : 504 ms
Writing library : LAME3.98r
Encoding settings : -m s -V 4 -q 2 -lowpass 18.6 -b 192
Раздача с 14.00 до 2.30 (время московское)
Download / Скачать

Хотите скачать бесплатно? Зарегистрируйтесь на сайте (ссылка на регистрацию). Pirat.ca - самый быстрый торрент трекер в рунете!

Как скачивать  ·   Что такое торрент  ·   Рейтинг и ограничения

Пост 07-Июн-2014 20:30 (спустя 2 часа 43 минуты)

Топик был перенесен из форума Наше кино (Трюм) в форум Российские фильмы
kugesan
 

Znoi

Флибустьер

1163

Пост 07-Июн-2014 21:44 (спустя 3 часа)

[Q] 

Спасибо!!! за релиз
[Профиль]  [ЛС] 

zlodeishe

Шкипер

Пост 27-Дек-2014 19:52 (спустя 6 месяцев 19 дней)

[Q] 

Автору респект!!!
Всем качать!!!

_________________
Кольт 45-го калибра бьёт 4-х тузов
[Профиль]  [ЛС] 
Показать сообщения:    
Ответить на тему

Текущее время: Сегодня 23:15

Часовой пояс: GMT + 4



Вы не можете начинать темы
Вы не можете отвечать на сообщения
Вы не можете редактировать свои сообщения
Вы не можете удалять свои сообщения
Вы не можете голосовать в опросах
Вы не можете прикреплять файлы к сообщениям
Вы не можете скачивать файлы

▼ Вниз