ML
     
  Уважаемый Гость!
Вы можете поддержать проект и зарегистрироваться у наших партнеров - онлайн-стратегия MyLands. При регистрации в игре Вы получите код, который сможете активировать после регистрации на pirat.ca и получить 1000 дублонов.

Ваш код:
74c28610d77aaac24ba694c4128f3b9b46b04220
 
     

Копы из Перетопа (Максим Паперник) [2014 г., Детектив, комедия, SATRip]

Ответить на тему
 
Автор
Сообщение

Пост 09-Июн-2014 01:28

[Q] 

Resident

-Копы из Перетопа-- Производство: Россия
Режиссер: Максим Паперник
Жанр: Детектив, комедия
Год выпуска: 2014 г.
Продолжительность: 01:32:00
В ролях: Никита Пресняков, Николай Добрынин, Мария Аронова, Светлана Косолапова, Анатолий Зиновенко, Максим Никитин, Александр Ярема, Константин Корецкий, Валерий Астахов, Алексей Смолка-Описание: В провинциальный российский городок, где самым большим происшествием является пропажа поросенка, прибывает молодой выпускник школы полиции и со всем пылом своей юной души начинает наводить порядок.-Качество видео: SATRip
Контейнер: AVI
Видео кодек: XviD
Аудио кодек: AC3
Видео: XviD, 1920 Кбит/с, 720х400, 25 fps, 0.27 bit / pix
Аудио: 48 kHz, MP3, 2 ch, 192 Кбит/с
Cубтитры: отсутствуют
General
Complete name : W:\Kopy.s.peretopa.2014.SATRip.avi
Format : AVI
Format/Info : Audio Video Interleave
File size : 1.37 GiB
Duration : 1h 32mn
Overall bit rate : 2 123 Kbps
Writing application : VirtualDubModRus 1.5.10.2 (build 2542/release)
Writing library : VirtualDubMod build 2542/release
Video
ID : 0
Format : MPEG-4 Visual
Format profile : Advanced [email protected]
Format settings, BVOP : Yes
Format settings, QPel : No
Format settings, GMC : No warppoints
Format settings, Matrix : Custom
Codec ID : XVID
Codec ID/Hint : XviD
Duration : 1h 32mn
Bit rate : 1 921 Kbps
Width : 720 pixels
Height : 400 pixels
Display aspect ratio : 16:9
Frame rate : 25.000 fps
Color space : YUV
Chroma subsampling : 4:2:0
Bit depth : 8 bits
Scan type : Progressive
Bits/(Pixel*Frame) : 0.267
Stream size : 1.24 GiB (90%)
Writing library : XviD 73
Audio
ID : 1
Format : MPEG Audio
Format version : Version 1
Format profile : Layer 3
Codec ID : 55
Codec ID/Hint : MP3
Duration : 1h 32mn
Bit rate mode : Constant
Bit rate : 192 Kbps
Channel(s) : 2 channels
Sampling rate : 48.0 KHz
Stream size : 127 MiB (9%)
Alignment : Aligned on interleaves
Interleave, duration : 40 ms (1.00 video frame)
Interleave, preload duration : 504 ms
Writing library : LAME3.99r
Encoding settings : -m s -V 4 -q 2 -lowpass 18.6 -b 192
Download / Скачать

Хотите скачать бесплатно? Зарегистрируйтесь на сайте (ссылка на регистрацию). Pirat.ca - самый быстрый торрент трекер в рунете!

Как скачивать  ·   Что такое торрент  ·   Рейтинг и ограничения

Пост 09-Июн-2014 08:22 (спустя 6 часов)

Топик был перенесен из форума Наше кино (Трюм) в форум Новинки (HD|DVD|BD| TV|SAT|PDTV| - Rips)
kugesan
 

fex

Морской Волк

Пост 09-Июн-2014 09:12 (спустя 7 часов)

[Q] 

Как кино? стоит смотреть?

_________________
Всегда телефон в микроволновке заряжаю, на две минуты ставлю. Оперативку отлично очищает и удаляет системный мусор.
[Профиль]  [ЛС] 

platon18

Гроза морей

Пост 09-Июн-2014 09:14 (спустя 2 минуты)

[Q] 

ацкое описание
[Профиль]  [ЛС] 

plistikanatolii

Морской Волк

Пост 09-Июн-2014 10:59 (спустя 1 час 44 минуты)

[Q] 

ну если
добрынин будет хохмить то наверное стоит.спасибо
На форуме  [Профиль]  [ЛС] 

Alexlogin

Гроза морей

105

Пост 09-Июн-2014 12:23 (спустя 1 час 24 минуты)

[Q] 

Спасибо автору посмотрим
[Профиль]  [ЛС] 

Санчо

Штурман

Пост 11-Июн-2014 00:43 (спустя 1 день 12 часов)

[Q] 

НЕ очень,на раз. Пиратка рулез!!!
[Профиль]  [ЛС] 

Танюха10988

Гроза морей

Пост 14-Июн-2014 23:29 (спустя 3 дня)

[Q] 

Спасибо!!!
[Профиль]  [ЛС] 

лысый 9999

Морской Волк

Пост 15-Июн-2014 12:06 (спустя 12 часов)

[Q] 

фильмец гов-о Зуб даю... Ой как стыдно-то...
[Профиль]  [ЛС] 

mik100

Лоцман

Пост 28-Окт-2014 18:36 (спустя 4 месяца 13 дней)

[Q] 

по скринам и описанию не стоит качать
[Профиль]  [ЛС] 
Показать сообщения:    
Ответить на тему

Текущее время: Сегодня 10:01

Часовой пояс: GMT + 4



Вы не можете начинать темы
Вы не можете отвечать на сообщения
Вы не можете редактировать свои сообщения
Вы не можете удалять свои сообщения
Вы не можете голосовать в опросах
Вы не можете прикреплять файлы к сообщениям
Вы не можете скачивать файлы

▼ Вниз