ML
     
  Уважаемый Гость!
Вы можете поддержать проект и зарегистрироваться у наших партнеров - онлайн-стратегия MyLands. При регистрации в игре Вы получите код, который сможете активировать после регистрации на pirat.ca и получить 1000 дублонов.

Ваш код:
2a3da67fd641d69eeebb7cb965232435a70eaa24
 
     

Скорый «Москва-Россия» (Игорь Волошин) [2014 г., Комедия, приключения, HDRip] Лицензия

Ответить на тему
 
Автор
Сообщение

Пост 10-Июн-2014 11:33

[Q] 

LPPI

-Скорый «Москва-Россия»- Производство: Россия, Bulldozerfilms
Жанр: Комедия, приключения
Год выпуска: 2014 г.
Продолжительность: 01:24:40
Российская премьера: 17 апреля 2014, «Наше Кино»
Дата выхода DVD: 5 июня 2014, «CD Land»
Дата выхода Blu-Ray: 5 июня 2014, «CD Land»-Режиссер: Игорь Волошин
В ролях: Сергей Светлаков, Маргарита Левиева, Павел Деревянко, Майкл Мэдсен, Ингеборга Дапкунайте, Спартак Кондауров, Максим Голополосов, Иван Ургант, Виктор Проскурин, Ольга Симонова-Описание: Это история про парня, который душу готов продать, лишь бы набрать миллион просмотров для своего видео на YouTube. На пути к своей цели он оказывается в скором поезде «Москва — Владивосток», где сталкивается с американской актрисой, страдающей аэрофобией. В пути незнакомцев ожидают такие приключения, что они отстают от поезда, который пытаются догнать, продвигаясь по нашей непредсказуемой и сказочной России-матушке… Ведь каждому из них нужно оказаться во Владивостоке ровно через 7 дней — по причинам, которые они тщательно скрывают друг от друга.- -Качество видео: HDRip
Контейнер: AVI
Видео кодек: XviD
Аудио кодек: AC3
Видео: 720x304 (2.37:1), 25 fps, XviD build 50 ~1857 kbps avg, 0.34 bit/pixel
Аудио: 48 kHz, AC3 Dolby Digital, 3/2 (L,C,R,l,r) + LFE ch, ~448 kbps
Cубтитры: отсутствуют
General
Complete name : D:\Sk0r1y.M0skva-R0ss1a.2014.O.HDRip.1400Mb.avi
Format : AVI
Format/Info : Audio Video Interleave
File size : 1.37 GiB
Duration : 1h 24mn
Overall bit rate : 2 315 Kbps
Writing application : VirtualDubMod 1.5.10.2 (build 2540/release)
Writing library : VirtualDubMod build 2540/release
Video
ID : 0
Format : MPEG-4 Visual
Format profile : Advanced [email protected]
Format settings, BVOP : 2
Format settings, QPel : No
Format settings, GMC : No warppoints
Format settings, Matrix : Custom
Codec ID : XVID
Codec ID/Hint : XviD
Duration : 1h 24mn
Bit rate : 1 857 Kbps
Width : 720 pixels
Height : 304 pixels
Display aspect ratio : 2.35:1
Frame rate : 25.000 fps
Color space : YUV
Chroma subsampling : 4:2:0
Bit depth : 8 bits
Scan type : Progressive
Compression mode : Lossy
Bits/(Pixel*Frame) : 0.339
Stream size : 1.10 GiB (80%)
Writing library : XviD 1.2.1 (UTC 2008-12-04)
Audio
ID : 1
Format : AC-3
Format/Info : Audio Coding 3
Mode extension : CM (complete main)
Format settings, Endianness : Big
Codec ID : 2000
Duration : 1h 24mn
Bit rate mode : Constant
Bit rate : 448 Kbps
Channel(s) : 6 channels
Channel positions : Front: L C R, Side: L R, LFE
Sampling rate : 48.0 KHz
Bit depth : 16 bits
Compression mode : Lossy
Stream size : 271 MiB (19%)
Alignment : Split accross interleaves
Interleave, duration : 40 ms (1.00 video frame)
Interleave, preload duration : 500 ms
Download / Скачать

Хотите скачать бесплатно? Зарегистрируйтесь на сайте (ссылка на регистрацию). Pirat.ca - самый быстрый торрент трекер в рунете!

Как скачивать  ·   Что такое торрент  ·   Рейтинг и ограничения

Пост 10-Июн-2014 11:36 (спустя 2 минуты)

Топик был перенесен из форума Наше кино (Трюм) в форум Новинки (HD|DVD|BD| TV|SAT|PDTV| - Rips)
ara1205
 

atribut

Морской Волк

Пост 10-Июн-2014 12:04 (спустя 30 минут)

[Q] 

есть пару моментов смешных а в целом полная чушь с тупым юмором как у америкоцев

_________________
Подпись отключена за нарушение правил форума
[Профиль]  [ЛС] 

printoff

Пост 10-Июн-2014 12:12 (спустя 8 минут)

[Q] 

Фильм ерунда.
[Профиль]  [ЛС] 

Scorpion7474

Флибустьер

Пост 10-Июн-2014 18:03 (спустя 5 часов)

[Q] 

Автору респект!!! Лови бочку
[Профиль]  [ЛС] 

Vikingb

Штурман

Пост 10-Июн-2014 22:01 (спустя 3 часа)

[Q] 

Хотите расслабиться посмеяться посмотрите, а в принципе типичный типичный фильмы , но меня улыбнул. Думал худшее. Автору спасибо, а так же тем кто работал над фильмом. Но сцена с русалами....... да бросьте.=)

_________________
[Профиль]  [ЛС] 

DoktorRUS

Шкипер

Пост 10-Июн-2014 22:47 (спустя 45 минут)

[Q] 

фильм чудовище ! хотя может осилите смотреть больше 15-20 минут и там -то пойдёт самый сок, но по факту разумный человек на него время тратить не станет
[Профиль]  [ЛС] 

yax1992

Шкипер

Пост 11-Июн-2014 18:58 (спустя 20 часов)

[Q] 

у badcomedian-а посмотрим
[Профиль]  [ЛС] 

alexman

Корсар

Пост 14-Июн-2014 12:58 (спустя 2 дня 18 часов)

[Q] 

Автору спасибо. Фильм плохой.
[Профиль]  [ЛС] 

NaTaLi13

Лоцман

Пост 24-Июн-2014 20:53 (спустя 10 дней)

[Q] 

Фильм просто вынос мозга dm , такое Г стали снимать
[Профиль]  [ЛС] 

alex denver71

Флибустьер

Пост 22-Июл-2014 19:17 (спустя 27 дней)

[Q] 

Автору респект!!! смотрел фильм-шлак. bz
[Профиль]  [ЛС] 

sergej 1340

Морской Волк

Пост 25-Авг-2014 22:00 (спустя 1 месяц 3 дня)

[Q] 

заценим! Автору респект!!!
[Профиль]  [ЛС] 
Показать сообщения:    
Ответить на тему

Текущее время: Сегодня 01:16

Часовой пояс: GMT + 4



Вы не можете начинать темы
Вы не можете отвечать на сообщения
Вы не можете редактировать свои сообщения
Вы не можете удалять свои сообщения
Вы не можете голосовать в опросах
Вы не можете прикреплять файлы к сообщениям
Вы не можете скачивать файлы

▼ Вниз