ML
     
  Уважаемый Гость!
Вы можете поддержать проект и зарегистрироваться у наших партнеров - онлайн-стратегия MyLands. При регистрации в игре Вы получите код, который сможете активировать после регистрации на pirat.ca и получить 1000 дублонов.

Ваш код:
dbd0d701284cde74a1f34d06ce20b7bc75a73e75
 
     

Кухня в Париже (Дмитрий Дьяченко (II)) [2014 г., Комедия, HDRip] «CD Land»

Ответить на тему
 
Автор
Сообщение

Пост 11-Июн-2014 22:00

[Q] 

Resident

- Кухня в Парижe--«Bon appétit!» Производство: Россия, YBW Group, Yellow, Black & White, СТС
Режиссер: Дмитрий Дьяченко (II)
Жанр: Комедия
Год выпуска: 2014 г.
Продолжительность: 01:46:42
Российская премьера: 1 мая 2014, «Централ Партнершип», «All Media»
Дата выхода DVD: 3 июня 2014, «CD Land», ...
Дата выхода Blu-Ray: 3 июня 2014, «CD Land», ...-В ролях: Дмитрий Назаров, Дмитрий Нагиев, Елена Подкаминская, Марина Могилевская, Марк Богатырёв, Виктор Хориняк, Ольга Кузьмина, Екатерина Кузнецова, Валерия Федорович, Жанныл Асанбекова, Елена Чернявская, Алексей Колган, Сергей Лавыгин, Сергей Епишев, Михаил Тарабукин, Никита Тарасов, Юлия Такшина, Виктория Лукина, Виталий Щанников, Сергей Беляев, Роман Индык, Евгения Храповицкая, Ольга Новосад, Серафима Низовская, Александр Карпиловский, Мария Горбань, Ирина Бразговка-Описание: Модный столичный ресторан «Клод Моне» процветает. Именно здесь, в родном заведении Вика и Максим хотят отпраздновать долгожданную свадьбу. Но планы меняются, когда в ресторане назначают переговоры Президентов России и Франции! Команда ресторана терпит фиаско и вынуждена отправиться в «изгнание» — в Париж. Там Шеф с Максом сталкиваются с опасными конкурентами: Шеф — с ближайшим родственником, а Максим — с красавцем Николя, который кружит Вике голову не хуже искристого шампанского! И это еще не все вызовы, которые бросает им «Город любви», ведь надо постараться спасти репутацию, накормить Президентов и преодолеть миллион препятствий à la française…-
Качество видео: HDRip
Контейнер: AVI
Видео кодек: XviD
Аудио кодек: AC3
Видео: XviD, 1500 Кбит/с, 720x304 (2.35:1), 24 fps, 0.286 bit / pix
Аудио: 48 kHz, AC3, 6 ch, 448 Кбит/с
Cубтитры: отсутствуют
General
Complete name : W:\Kuhnia.v.Parizhe.2014.O.HDRip.1.46Gb.avi
Format : AVI
Format/Info : Audio Video Interleave
File size : 1.46 GiB
Duration : 1h 46mn
Overall bit rate : 1 959 Kbps
Writing application : VirtualDubMod 1.5.10.2 (build 2540/release)
Writing library : VirtualDubMod build 2540/release
Video
ID : 0
Format : MPEG-4 Visual
Format profile : Advanced [email protected]
Format settings, BVOP : Yes
Format settings, QPel : No
Format settings, GMC : No warppoints
Format settings, Matrix : Custom
Codec ID : XVID
Codec ID/Hint : XviD
Duration : 1h 46mn
Bit rate : 1 502 Kbps
Width : 720 pixels
Height : 304 pixels
Display aspect ratio : 2.35:1
Frame rate : 24.000 fps
Color space : YUV
Chroma subsampling : 4:2:0
Bit depth : 8 bits
Scan type : Progressive
Bits/(Pixel*Frame) : 0.286
Stream size : 1.12 GiB (77%)
Writing library : XviD 1.2.1 (UTC 2008-12-04)
Audio
ID : 1
Format : AC-3
Format/Info : Audio Coding 3
Mode extension : CM (complete main)
Codec ID : 2000
Duration : 1h 46mn
Bit rate mode : Constant
Bit rate : 448 Kbps
Channel(s) : 6 channels
Channel positions : Front: L C R, Side: L R, LFE
Sampling rate : 48.0 KHz
Bit depth : 16 bits
Stream size : 342 MiB (23%)
Alignment : Split accross interleaves
Interleave, duration : 42 ms (1.00 video frame)
Interleave, preload duration : 500 ms
Download / Скачать

Хотите скачать бесплатно? Зарегистрируйтесь на сайте (ссылка на регистрацию). Pirat.ca - самый быстрый торрент трекер в рунете!

Как скачивать  ·   Что такое торрент  ·   Рейтинг и ограничения

Пост 12-Июн-2014 06:34 (спустя 8 часов)

Топик был перенесен из форума Наше кино (Трюм) в форум Новинки (HD|DVD|BD| TV|SAT|PDTV| - Rips)
erchine
 

yuriy-yu

Лоцман

Пост 19-Июл-2014 18:44 (спустя 1 месяц 7 дней)

[Q] 

Где раздача bc
[Профиль]  [ЛС] 

siski

Шкипер

Пост 30-Июл-2014 20:12 (спустя 11 дней)

[Q] 

Спасибочки огромнейшее!!!!! Супер!
[Профиль]  [ЛС] 

levha35

Штурман

Пост 30-Авг-2014 17:26 (спустя 30 дней)

[Q] 

Качьнём глянем на шо наши способны Спасибо!!!
[Профиль]  [ЛС] 

Scorpion7474

Флибустьер

Пост 01-Сен-2014 15:00 (спустя 1 день 21 час)

[Q] 

Спасибо!!! Лови бочку
[Профиль]  [ЛС] 

Sector_X

Гроза морей

309

Пост 23-Сен-2014 15:04 (спустя 22 дня)

[Q] 

Глянем !!! Спасибо!!!

_________________
[Профиль]  [ЛС] 

kolegy1

Морской Волк

Пост 23-Сен-2014 15:37 (спустя 33 минуты)

[Q] 

Спасибо!!! !COOL!

_________________
Я знаю только то, что ничего не знаю, но другие не знают и этого.
[Профиль]  [ЛС] 

Элфрей

Штурман

Пост 30-Сен-2014 19:33 (спустя 7 дней)

[Q] 

Фильм так себе Сериал был поинтересней
[Профиль]  [ЛС] 

Jutek

Штурман

Пост 08-Окт-2014 02:07 (спустя 7 дней)

[Q] 

Нечего себе такая российская комедия, но моментами до абсурда просто если бы не это, то вообще хорошо. Советую
[Профиль]  [ЛС] 

Sector_X

Гроза морей

309

Пост 11-Окт-2014 18:45 (спустя 3 дня)

[Q] 

Посмотреть можно но ОДИН раз! Уж многое в фильме не сходиться с реальной жизнью.Сериал интересней!!! Автору респект!!! Трафик потрачен зря!

_________________
[Профиль]  [ЛС] 

Endorphin666

Штурман

Пост 15-Окт-2014 22:56 (спустя 4 дня)

[Q] 

Отличная комедия, вечерком посмотреть!
Автору респект!!!
Добавлено спустя 38 секунд:
Спасибо!!!
Лови бочку
[Профиль]  [ЛС] 

hohol541

Корсар

Пост 28-Окт-2014 15:39 (спустя 12 дней)

[Q] 

Когда смотреть нечего-и это сойдёт.
[Профиль]  [ЛС] 

Rimmantila

Юнга

Пост 31-Окт-2014 23:23 (спустя 3 дня)

[Q] 

В целом фильм удался , так сказать краткая лента сериала , но посмотреть стоит
[Профиль]  [ЛС] 

RoMaZz

Штурман

Пост 26-Ноя-2014 11:28 (спустя 25 дней)

[Q] 

Лови бочку
Хороший фильм)
[Профиль]  [ЛС] 

Dimas Ladzinskiy

Морской Волк

Пост 14-Дек-2014 16:12 (спустя 18 дней)

[Q] 

Кто смотрел сериал в фильме не разочаруются ну, а в целом фильм на любителя!
[Профиль]  [ЛС] 

diman3737

Пост 25-Дек-2014 17:28 (спустя 11 дней)

[Q] 

Нормальное кинцо в компании под пивас вааще !COOL!
[Профиль]  [ЛС] 
Показать сообщения:    
Ответить на тему

Текущее время: Сегодня 18:31

Часовой пояс: GMT + 4



Вы не можете начинать темы
Вы не можете отвечать на сообщения
Вы не можете редактировать свои сообщения
Вы не можете удалять свои сообщения
Вы не можете голосовать в опросах
Вы не можете прикреплять файлы к сообщениям
Вы не можете скачивать файлы

▼ Вниз