ML
     
  Уважаемый Гость!
Вы можете поддержать проект и зарегистрироваться у наших партнеров - онлайн-стратегия MyLands. При регистрации в игре Вы получите код, который сможете активировать после регистрации на pirat.ca и получить 1000 дублонов.

Ваш код:
69f316be79867e9bf99caee9682d20bb11964507
 
     

22 минуты (Василий Сериков) [2014 г., Боевик, HDRip] Лицензия

Ответить на тему
 
Автор
Сообщение

Пост 12-Июн-2014 10:07

[Q] 

LPPI

-22 минуты- Производство: Россия, Централ Партнершип
Жанр: Боевик
Год выпуска: 2014 г.
Продолжительность: 01:22:48
Российская премьера: 8 мая 2014, «Централ Партнершип»-Режиссер: Василий Сериков
В ролях: Макар Запорожский, Денис Никифоров, Виктор Сухоруков, Екатерина Маликова, Гаэль Камилинди, Александр Галибин, Владислав Демин, Ибрагим Тооре, Софья Козко, Иван Породнов-Описание: Морпех — первогодок Саня Ежов оказывается среди пиратов на захваченном танкере. Он знает — товарищи не бросят. Ему нужно выжить и помочь своим, когда начнется штурм. Фильм основан на реальных событиях 5 мая 2010 года, когда морские пехотинцы БПК «Маршал Шапошников» освободили захваченный в водах Аденского залива российский танкер «Московский университет». У них было только 22 минуты без права на ошибку…- -Качество видео: HDRip
Контейнер: AVI
Видео кодек: XviD
Аудио кодек: AC3
Видео: 720x304 (2.37:1), 24 fps, XviD build 50 ~1907 kbps avg, 0.36 bit/pixel
Аудио: 48 kHz, AC3 Dolby Digital, 3/2 (L,C,R,l,r) + LFE ch, ~448 kbps
Cубтитры: отсутствуют
General
Complete name : D:\22.m1nuty.2014.O.HDRip.1400MB.avi
Format : AVI
Format/Info : Audio Video Interleave
File size : 1.37 GiB
Duration : 1h 22mn
Overall bit rate : 2 364 Kbps
Writing application : VirtualDubMod 1.5.10.2 (build 2540/release)
Writing library : VirtualDubMod build 2540/release
Video
ID : 0
Format : MPEG-4 Visual
Format profile : Advanced [email protected]
Format settings, BVOP : 2
Format settings, QPel : No
Format settings, GMC : No warppoints
Format settings, Matrix : Custom
Codec ID : XVID
Codec ID/Hint : XviD
Duration : 1h 22mn
Bit rate : 1 907 Kbps
Width : 720 pixels
Height : 304 pixels
Display aspect ratio : 2.35:1
Frame rate : 24.000 fps
Color space : YUV
Chroma subsampling : 4:2:0
Bit depth : 8 bits
Scan type : Progressive
Compression mode : Lossy
Bits/(Pixel*Frame) : 0.363
Stream size : 1.10 GiB (81%)
Writing library : XviD 1.2.1 (UTC 2008-12-04)
Audio
ID : 1
Format : AC-3
Format/Info : Audio Coding 3
Mode extension : CM (complete main)
Format settings, Endianness : Big
Codec ID : 2000
Duration : 1h 22mn
Bit rate mode : Constant
Bit rate : 448 Kbps
Channel(s) : 6 channels
Channel positions : Front: L C R, Side: L R, LFE
Sampling rate : 48.0 KHz
Bit depth : 16 bits
Compression mode : Lossy
Stream size : 265 MiB (19%)
Alignment : Split accross interleaves
Interleave, duration : 42 ms (1.00 video frame)
Interleave, preload duration : 500 ms
Download / Скачать

Хотите скачать бесплатно? Зарегистрируйтесь на сайте (ссылка на регистрацию). Pirat.ca - самый быстрый торрент трекер в рунете!

Как скачивать  ·   Что такое торрент  ·   Рейтинг и ограничения

Коммунист

Морской Волк

Пост 12-Июн-2014 10:24 (спустя 17 минут)

[Q] 

рекомендую всем!
[Профиль]  [ЛС] 

Пост 12-Июн-2014 11:08 (спустя 43 минуты)

Топик был перенесен из форума Наше кино (Трюм) в форум Новинки (HD|DVD|BD| TV|SAT|PDTV| - Rips)
kugesan
 

hevard

Гроза морей

2109

Пост 12-Июн-2014 11:47 (спустя 1 час 23 минуты)

[Q] 

Хороший фильм! Без пафоса... Спасибо!!!

_________________
-Я старый пират и не знаю слов лицензионного соглашения...
[Профиль]  [ЛС] 

ynos

Лоцман

Пост 12-Июн-2014 16:22 (спустя 4 часа)

[Q] 

На удивление достойный фильм!
[Профиль]  [ЛС] 

KoSkud

Флибустьер

Пост 12-Июн-2014 18:50 (спустя 2 часа 27 минут)

[Q] 

согласен,сам с удивлением обратил на это внимание )) спасибо за релиз

_________________
Учись-играя,играя-учись
[Профиль]  [ЛС] 

sleandr

Шкипер

Пост 12-Июн-2014 23:36 (спустя 4 часа)

[Q] 

Хороший фильм.
Спасибо!!! Автору респект!!!
[Профиль]  [ЛС] 

Jek@

Легенда

Пост 13-Июн-2014 11:18 (спустя 11 часов)

[Q] 

Спасибо!!! .
[Профиль]  [ЛС] 

bolobol

Корсар

110

Пост 13-Июн-2014 19:59 (спустя 8 часов)

[Q] 

Наш русский народ научился снимать боевечки ?? Меня ето радует Всем качать!!!

_________________
[Профиль]  [ЛС] 

fex

Морской Волк

Пост 14-Июн-2014 19:02 (спустя 23 часа)

[Q] 

Ребята, я так понял, что смотреть стоит?????? а тема сисек раскрыта?

_________________
Всегда телефон в микроволновке заряжаю, на две минуты ставлю. Оперативку отлично очищает и удаляет системный мусор.
[Профиль]  [ЛС] 

Полтос

Флибустьер

Пост 15-Июн-2014 00:08 (спустя 5 часов)

[Q] 

547478Ребята, я так понял, что смотреть стоит?????? а тема сисек раскрыта?
Если и раскрыта, то не в этом фильме... До уровня "Одиночного плавания" или "Пиратов ХХ века" фильм явно не дотягивает, как впрочем и до пиндостанского аналога "Капитан Фракасс". Но от нечего делать можно и заценить... Сухоруков здесь явно не к месту...

_________________
Первый закон Прапорщика: Всё что поднимаемо - относительно!)
[Профиль]  [ЛС] 

Танюха10988

Гроза морей

Пост 17-Июн-2014 21:57 (спустя 2 дня 21 час)

[Q] 

Хороший фильм. Спасибо!!! Автору респект!!!
[Профиль]  [ЛС] 

dambrina

Флибустьер

Пост 19-Июн-2014 22:44 (спустя 2 дня)

[Q] 

прогрессирует российский кинематограф +) одобряю!
[Профиль]  [ЛС] 

Полтос

Флибустьер

Пост 21-Июн-2014 01:01 (спустя 1 день 2 часа)

[Q] 

Самое странное, что на борту танкера не было логотипа Газпрома, хотя заочно - смысл гремел именно тот... Увидев фильм впервые узнал, что мы газ возим в Африку - до этого казалось, что у Африки есть более близкие поставщикии...

_________________
Первый закон Прапорщика: Всё что поднимаемо - относительно!)
[Профиль]  [ЛС] 

UA4HQW

Флибустьер

2528

Пост 21-Июн-2014 11:42 (спустя 10 часов)

[Q] 

Хороший фильмец ! Давно не было у нас подобных фильмов. Сухоруков - кап 1-го ранга???!!! Смешно !
Автору респект!!!
[Профиль]  [ЛС] 

HOTTABYCHru_32_Aртём

Канонир

Пост 07-Июл-2014 22:58 (спустя 16 дней)

[Q] 

отличный фильм даст фору любому за бугорному фильму
[Профиль]  [ЛС] 

bolobol

Корсар

110

Пост 08-Июл-2014 01:50 (спустя 2 часа 51 минута)

[Q] 

скажу так!!! кому показывал етот фильм те смотрели с открытым ртом!!!! фильм зачётный! !COOL! Всем качать!!!
Добавлено спустя 1 минута 48 секунд:

_________________
[Профиль]  [ЛС] 

Alikbest

Шкипер

Пост 08-Июл-2014 11:44 (спустя 9 часов)

[Q] 

Неплохой фильмец Спасибо!!!
[Профиль]  [ЛС] 

Zetvelkras

Шкипер

Пост 11-Июл-2014 08:58 (спустя 2 дня 21 час)

[Q] 

Спасибо!!! Автору респект!!!
[Профиль]  [ЛС] 

uzi

Морской Волк

Пост 07-Дек-2014 20:24 (спустя 4 месяца 27 дней)

[Q] 

хороший фильм Автору респект!!!
[Профиль]  [ЛС] 

kolegy1

Морской Волк

Пост 08-Дек-2014 00:11 (спустя 3 часа)

[Q] 

Каччество фильма очень порадовало! Всем качать!!! Супер!

_________________
Я знаю только то, что ничего не знаю, но другие не знают и этого.
[Профиль]  [ЛС] 
Показать сообщения:    
Ответить на тему

Текущее время: Сегодня 14:30

Часовой пояс: GMT + 4



Вы не можете начинать темы
Вы не можете отвечать на сообщения
Вы не можете редактировать свои сообщения
Вы не можете удалять свои сообщения
Вы не можете голосовать в опросах
Вы не можете прикреплять файлы к сообщениям
Вы не можете скачивать файлы

▼ Вниз