ML
     
  Уважаемый Гость!
Вы можете поддержать проект и зарегистрироваться у наших партнеров - онлайн-стратегия MyLands. При регистрации в игре Вы получите код, который сможете активировать после регистрации на pirat.ca и получить 1000 дублонов.

Ваш код:
4855957e17f50c5c1236a0f8c4492b2b0bba00a0
 
     

22 минуты (Василий Сериков) [2014 г., боевик, HDRip] [Лицензия]

Ответить на тему
 
Автор
Сообщение

Пост 16-Июн-2014 14:52

[Q] 

ara1205

-22 минуты-- Производство: Россия
Год выпуска: 2014 г.
Жанр: боевик
Продолжительность: 01:22:48-Режиссер: Василий Сериков-В ролях: Макар Запорожский, Денис Никифоров, Виктор Сухоруков, Екатерина Маликова, Гаэль Камилинди, Александр Галибин, Владислав Демин, Ибрагим Тооре, Софья Козко, Иван Породнов-Описание: Морпех — первогодок Саня Ежов оказывается среди пиратов на захваченном танкере. Он знает — товарищи не бросят. Ему нужно выжить и помочь своим, когда начнется штурм. Фильм основан на реальных событиях 5 мая 2010 года, когда морские пехотинцы БПК «Маршал Шапошников» освободили захваченный в водах Аденского залива российский танкер «Московский университет». У них было только 22 минуты без права на ошибку…- -Качество видео: HDRip
Контейнер: AVI
Видео кодек: XviD
Аудио кодек: MP3
Видео: 688x288, 24 fps, 1125 kbps avg, 0.237 bit/pixel
Аудио: 48 kHz, MPEG Layer 3, 2 ch, ~128.00 kbps avg
Cубтитры: отсутствуют-
Общее
Полное имя : C:\Users\Ромик\Pictures\22 минуты\22.minuty.2014.HDRip.745Mb.avi
Формат : AVI
Формат/Информация : Audio Video Interleave
Размер файла : 745 Мбайт
Продолжительность : 1 ч. 22 м.
Общий поток : 1262 Кбит/сек
Название фильма : 22.minuty.2014.HDRip.745Mb.[pirat.ca]
Программа кодирования : VirtualDubMod 1.5.10.2 (build 2540/release)
Правообладатель : http://pirat.ca
Видео
Идентификатор : 0
Формат : MPEG-4 Visual
Профиль формата : Advanced [email protected]
Параметр BVOP формата : 2
Параметр QPel формата : Нет
Параметр GMC формата : Без точки перехода
Параметр матрицы формата : Default (MPEG)
Идентификатор кодека : XVID
Идентификатор кодека/Подсказка : XviD
Продолжительность : 1 ч. 22 м.
Битрейт : 1125 Кбит/сек
Ширина : 688 пикселей
Высота : 288 пикселей
Соотношение сторон : 2,40:1
Частота кадров : 24,000 кадра/сек
Цветовое пространство : YUV
Субдискретизация насыщенности : 4:2:0
Битовая глубина : 8 бит
Тип развёртки : Прогрессивная
Метод сжатия : С потерями
Бит/(Пиксели*Кадры) : 0.237
Размер потока : 664 Мбайт (89%)
Библиотека кодирования : XviD 1.2.0.dev47 (UTC 2006-11-01)
Аудио
Идентификатор : 1
Формат : MPEG Audio
Версия формата : Version 1
Профиль формата : Layer 3
Идентификатор кодека : 55
Идентификатор кодека/Подсказка : MP3
Продолжительность : 1 ч. 22 м.
Вид битрейта : Постоянный
Битрейт : 128 Кбит/сек
Каналы : 2 канала
Частота : 48,0 КГц
Метод сжатия : С потерями
Размер потока : 75,5 Мбайт (10%)
Выравнивание : Соединение по промежуткам
Продолжительность промежутка : 42 мс. (1,00 видеокадр)
Время предзагрузки промежутка : 504 мс.
Библиотека кодирования : LAMELAME_MAJOR_VERSI
-
-
-
Download / Скачать

Хотите скачать бесплатно? Зарегистрируйтесь на сайте (ссылка на регистрацию). Pirat.ca - самый быстрый торрент трекер в рунете!

Как скачивать  ·   Что такое торрент  ·   Рейтинг и ограничения

Дядя Витя

53982

Пост 16-Июн-2014 15:03 (спустя 10 минут)

[Q] 


_________________
?
[Профиль]  [ЛС] 

jjkeljj

Морской Волк

Пост 16-Июн-2014 16:04 (спустя 1 час 1 минута)

[Q] 

спасибо !COOL! !COOL!

_________________
[Профиль]  [ЛС] 

max260

Юнга

Пост 19-Июн-2014 07:42 (спустя 2 дня 15 часов)

[Q] 

Супер!
Спасибо!!! не плохой фильм.
[Профиль]  [ЛС] 

mosc

Лоцман

Пост 21-Июн-2014 14:07 (спустя 2 дня 6 часов)

[Q] 

Спасибо.
Не плохой отечественный боевичок.
С удовольствием посмотрел
[Профиль]  [ЛС] 

serg1968_12

Лоцман

Пост 08-Июл-2014 15:24 (спустя 17 дней)

[Q] 

Спасибо!Фильм хороший!!!!
[Профиль]  [ЛС] 

Danila-Sweden

Лоцман

Пост 20-Июл-2014 20:15 (спустя 12 дней)

[Q] 

Отличный фильм! Хорошие актёры, классная постановка. Всё на высшем уровне!
10 из 10!!!
[Профиль]  [ЛС] 

Kviglick

Штурман

Пост 21-Июл-2014 10:51 (спустя 14 часов)

[Q] 

Спасибо, глянем)
[Профиль]  [ЛС] 

Пост 31-Июл-2014 19:50 (спустя 10 дней)

Топик был перенесен из форума Новинки (HD|DVD|BD| TV|SAT|PDTV| - Rips) в форум Российские фильмы
kugesan
 

E8GEN

Корсар

Пост 04-Авг-2014 20:17 (спустя 14 дней)

[Q] 

Качественный фильм.Россия рулит)
[Профиль]  [ЛС] 

mixa1208

Шкипер

Пост 12-Янв-2015 19:59 (спустя 5 месяцев 7 дней)

[Q] 

Спасибо!!! Всем качать!!! хороший РУССКИЙ фильм!
[Профиль]  [ЛС] 

khvorovs

Шкипер

13

Пост 14-Фев-2015 15:43 (спустя 1 месяц 1 день)

[Q] 

посмотрим чего из себя представляет....
[Профиль]  [ЛС] 
Показать сообщения:    
Ответить на тему

Текущее время: Сегодня 06:13

Часовой пояс: GMT + 4



Вы не можете начинать темы
Вы не можете отвечать на сообщения
Вы не можете редактировать свои сообщения
Вы не можете удалять свои сообщения
Вы не можете голосовать в опросах
Вы не можете прикреплять файлы к сообщениям
Вы не можете скачивать файлы

▼ Вниз