ML
     
  Уважаемый Гость!
Вы можете поддержать проект и зарегистрироваться у наших партнеров - онлайн-стратегия MyLands. При регистрации в игре Вы получите код, который сможете активировать после регистрации на pirat.ca и получить 1000 дублонов.

Ваш код:
2a3da67fd641d69eeebb7cb965232435a70eaa24
 
     

Восьмерка (Алексей Учитель) [2014 г., боевик, мелодрама, WEB-DL]

Ответить на тему
 
Автор
Сообщение

Пост 19-Июн-2014 00:36

[Q] 

Resident

-Восьмерка--«Любовь без тормозов» Производство: Россия, ТПО Рок
Режиссер: Алексей Учитель
Жанр: боевик, мелодрама
Год выпуска: 2014 г.
Продолжительность: 01:46:42
Российская премьера: 8 мая 2014, «DreamTeam»
Дата выхода DVD: 28 июня 2014, «CD Land», ...
В ролях: Артур Смольянинов, Вильма Кутавичюте, Алексей Манцыгин, Александр Новин, Артем Быстров,Павел Ворожцов, Захар Прилепин, Ирина Пегова, Сергей Пускепалис, Владимир Пирожок-Описание: Фильм рассказывает об истории жизни четырёх друзей - эдаких "мушкетёрах современности". Ребята отслужили в армии, а вернувшись домой, приняли единогласное решение о службе в ОМОНе. Любовь без тормозов становится причиной смертельной схватки между четверкой молодых парней из спецназа и бандой, которая держит в страхе весь город.-
Качество видео: WEB-DL
Контейнер: AVI
Видео кодек: XviD
Аудио кодек: AC3
Видео: XviD, 2000 Кбит/с, 720x400, 25 fps, 0.278 bit / pix
Аудио: 48 kHz, AC3, 384 Kb/s (6 ch)
Cубтитры: отсутствуют
General
Complete name : W:\8smerka.2014.O.WEB-DLRip.1400MB.avi
Format : AVI
Format/Info : Audio Video Interleave
File size : 1.37 GiB
Duration : 1h 21mn
Overall bit rate : 2 394 Kbps
Writing application : VirtualDubMod 1.5.10.3 | www.virtualdub-fr.org || (build 2550/release)
Writing library : VirtualDubMod build 2550/release
Video
ID : 0
Format : MPEG-4 Visual
Format profile : Advanced [email protected]
Format settings, BVOP : Yes
Format settings, QPel : No
Format settings, GMC : No warppoints
Format settings, Matrix : Default (H.263)
Codec ID : XVID
Codec ID/Hint : XviD
Duration : 1h 21mn
Bit rate : 2 001 Kbps
Width : 720 pixels
Height : 400 pixels
Display aspect ratio : 16:9
Frame rate : 25.000 fps
Color space : YUV
Chroma subsampling : 4:2:0
Bit depth : 8 bits
Scan type : Progressive
Bits/(Pixel*Frame) : 0.278
Stream size : 1.14 GiB (84%)
Writing library : XviD 1.2.1 (UTC 2008-12-04)
Audio
ID : 1
Format : AC-3
Format/Info : Audio Coding 3
Mode extension : CM (complete main)
Codec ID : 2000
Duration : 1h 21mn
Bit rate mode : Constant
Bit rate : 384 Kbps
Channel(s) : 6 channels
Channel positions : Front: L C R, Side: L R, LFE
Sampling rate : 48.0 KHz
Bit depth : 16 bits
Stream size : 225 MiB (16%)
Alignment : Split accross interleaves
Interleave, duration : 40 ms (1.00 video frame)
Interleave, preload duration : 500 ms
Download / Скачать

Хотите скачать бесплатно? Зарегистрируйтесь на сайте (ссылка на регистрацию). Pirat.ca - самый быстрый торрент трекер в рунете!

Как скачивать  ·   Что такое торрент  ·   Рейтинг и ограничения

Пост 19-Июн-2014 12:59 (спустя 12 часов)

Топик был перенесен из форума Наше кино (Трюм) в форум Новинки (HD|DVD|BD| TV|SAT|PDTV| - Rips)
kugesan
 

mazur1981

Шкипер

Пост 19-Июн-2014 20:45 (спустя 20 часов)

[Q] 

Спасибо!! Только вчера искал этот фильм на торрентах, но нигде не было. Посмотрю - отпишусь
Добавлено спустя 1 час 4 минуты 4 секунды:
Фильм классный! Смотреть однозначно
[Профиль]  [ЛС] 

Resident ®

45475

Пост 20-Июн-2014 03:04 (спустя 6 часов)

[Q] 

музло к фильму

_________________

Раздаю с 00:00 до 04:00
[Профиль]  [ЛС] 

Hausser

Гроза морей

Пост 20-Июн-2014 15:49 (спустя 12 часов)

[Q] 

За раздачу спасибо! По поводу фильма: зарекался смотреть новое русское кино, повелся на ОМОН, такой низкосортной лажы не видел давно.
[Профиль]  [ЛС] 

KoSkud

Флибустьер

Пост 20-Июн-2014 18:05 (спустя 2 часа 15 минут)

[Q] 

Спасибо,наконец-то посмотрю,а то много шума вокруг него ))

_________________
Учись-играя,играя-учись
[Профиль]  [ЛС] 

MadDon

Штурман

Пост 21-Июн-2014 14:29 (спустя 20 часов)

[Q] 

трейлер к фильму не зацепил,отзывы печальны...а вот "музло к фильму" понравилось. посмотрим из-за музла фильмец...
[Профиль]  [ЛС] 

Vinyard

Корсар

Пост 21-Июн-2014 19:30 (спустя 5 часов)

[Q] 

спасибо. давно ждал. правда рейтинги противоречивые...
[Профиль]  [ЛС] 

Patrick_

Лоцман

79

Пост 22-Июн-2014 23:13 (спустя 1 день 3 часа)

[Q] 

Найди отличия:
[Профиль]  [ЛС] 

Пост 31-Июл-2014 20:21 (спустя 1 месяц 8 дней)

Топик был перенесен из форума Новинки (HD|DVD|BD| TV|SAT|PDTV| - Rips) в форум Российские фильмы
kugesan
 

Alexdok

Лоцман

9

Пост 04-Сен-2014 04:21 (спустя 2 месяца 11 дней)

[Q] 

Автору респект!!!, но фильм не о чём - реальный бред!
[Профиль]  [ЛС] 
Показать сообщения:    
Ответить на тему

Текущее время: Сегодня 01:15

Часовой пояс: GMT + 4



Вы не можете начинать темы
Вы не можете отвечать на сообщения
Вы не можете редактировать свои сообщения
Вы не можете удалять свои сообщения
Вы не можете голосовать в опросах
Вы не можете прикреплять файлы к сообщениям
Вы не можете скачивать файлы

▼ Вниз