ML
     
  Уважаемый Гость!
Вы можете поддержать проект и зарегистрироваться у наших партнеров - онлайн-стратегия MyLands. При регистрации в игре Вы получите код, который сможете активировать после регистрации на pirat.ca и получить 1000 дублонов.

Ваш код:
bc31d8aef74c92e19ad67e34a8fa63c3b9b812fb
 
     

Восьмерка (Алексей Учитель) [2014 г., Боевик, мелодрама, WEB-DL-AVC]

Ответить на тему
 
Автор
Сообщение

Пост 19-Июн-2014 16:42

[Q] 

LPPI

-Восьмерка-«Любовь без тормозов»- Производство: Россия, ТПО Рок
Жанр: Боевик, мелодрама
Год выпуска: 2014 г.
Продолжительность: 01:46:42
Российская премьера: 8 мая 2014, «DreamTeam»
Дата выхода DVD: 28 июня 2014, «CD Land»-Режиссер: Алексей Учитель
В ролях: Артур Смольянинов, Вильма Кутавичюте, Алексей Манцыгин, Александр Новин, Артем Быстров,Павел Ворожцов, Захар Прилепин, Ирина Пегова, Сергей Пускепалис, Владимир Пирожок-Описание: Фильм рассказывает об истории жизни четырёх друзей - эдаких "мушкетёрах современности". Ребята отслужили в армии, а вернувшись домой, приняли единогласное решение о службе в ОМОНе. Любовь без тормозов становится причиной смертельной схватки между четверкой молодых парней из спецназа и бандой, которая держит в страхе весь город.- -Качество видео: WEB-DL-AVC
Контейнер: MKV
Видео кодек: H.264
Аудио кодек: AC3
Видео: 1024x576 (16:9), 2 634 Kbps, 25.000 fps, 0.179 bit/pix
Аудио: 384 Kbps, 6 ch, 48.0 KHz
Cубтитры: отсутствуют
General
Unique ID : 176373934854098665370396405333473524758 (0x84B0625E809921BF98360A913EEA7C16)
Complete name : D:\Vosmerka.2014.O.WEB-DLRip.AVC.mkv
Format : Matroska
Format version : Version 2
File size : 1.73 GiB
Duration : 1h 21mn
Overall bit rate : 3 019 Kbps
Encoded date : UTC 2014-06-19 03:08:56
Writing application : mkvmerge v4.9.1 ('Ich will') built on Jul 11 2011 23:53:15
Writing library : libebml v1.2.1 + libmatroska v1.1.1
Video
ID : 1
Format : AVC
Format/Info : Advanced Video Codec
Format profile : [email protected]
Format settings, CABAC : Yes
Format settings, ReFrames : 9 frames
Codec ID : V_MPEG4/ISO/AVC
Duration : 1h 21mn
Bit rate : 2 634 Kbps
Width : 1 024 pixels
Height : 576 pixels
Display aspect ratio : 16:9
Frame rate mode : Constant
Frame rate : 25.000 fps
Color space : YUV
Chroma subsampling : 4:2:0
Bit depth : 8 bits
Scan type : Progressive
Bits/(Pixel*Frame) : 0.179
Stream size : 1.47 GiB (85%)
Writing library : x264 core 116 r2044 392e762
Encoding settings : cabac=1 / ref=9 / deblock=1:-3:-3 / analyse=0x3:0x113 / me=umh / subme=10 / psy=1 / psy_rd=1.00:0.20 / mixed_ref=1 / me_range=32 / chroma_me=1 / trellis=2 / 8x8dct=1 / cqm=0 / deadzone=21,11 / fast_pskip=0 / chroma_qp_offset=-3 / threads=12 / sliced_threads=0 / nr=0 / decimate=0 / interlaced=0 / bluray_compat=0 / constrained_intra=0 / bframes=9 / b_pyramid=2 / b_adapt=2 / b_bias=0 / direct=3 / weightb=1 / open_gop=0 / weightp=2 / keyint=250 / keyint_min=25 / scenecut=40 / intra_refresh=0 / rc=2pass / mbtree=0 / bitrate=2634 / ratetol=1.0 / qcomp=0.60 / qpmin=0 / qpmax=69 / qpstep=4 / cplxblur=20.0 / qblur=0.5 / ip_ratio=1.40 / pb_ratio=1.30 / aq=1:1.00
Default : Yes
Forced : No
Audio
ID : 2
Format : AC-3
Format/Info : Audio Coding 3
Mode extension : CM (complete main)
Format settings, Endianness : Big
Codec ID : A_AC3
Duration : 1h 21mn
Bit rate mode : Constant
Bit rate : 384 Kbps
Channel(s) : 6 channels
Channel positions : Front: L C R, Side: L R, LFE
Sampling rate : 48.0 KHz
Bit depth : 16 bits
Compression mode : Lossy
Stream size : 225 MiB (13%)
Language : Russian
Default : Yes
Forced : No
Menu
00:00:00.000 : en:Глава 1
00:05:10.000 : en:Глава 2
00:10:48.000 : en:Глава 3
00:14:58.000 : en:Глава 4
00:19:45.000 : en:Глава 5
00:25:49.000 : en:Глава 6
00:30:16.000 : en:Глава 7
00:35:20.000 : en:Глава 8
00:39:32.000 : en:Глава 9
00:44:07.000 : en:Глава 10
00:49:57.000 : en:Глава 11
00:55:52.000 : en:Глава 12
01:02:33.000 : en:Глава 13
01:08:11.000 : en:Глава 14
01:13:06.000 : en:Глава 15
Download / Скачать

Хотите скачать бесплатно? Зарегистрируйтесь на сайте (ссылка на регистрацию). Pirat.ca - самый быстрый торрент трекер в рунете!

Как скачивать  ·   Что такое торрент  ·   Рейтинг и ограничения

Пост 19-Июн-2014 18:27 (спустя 1 час 44 минуты)

Топик был перенесен из форума Наше кино (Трюм) в форум Новинки (HD|DVD|BD| TV|SAT|PDTV| - Rips)
kugesan
 

SGSoft

Флибустьер

Пост 19-Июн-2014 21:33 (спустя 4 часа)

[Q] 

Да уж.... посмотрел этот продукт синематографа российского. опечален в целом. но рад, что в кинотеатр не пошел на это
[Профиль]  [ЛС] 

Alexlogin

Гроза морей

105

Пост 19-Июн-2014 23:13 (спустя 1 час 39 минут)

[Q] 

Спасибо посмотрим что наши наснимали
[Профиль]  [ЛС] 

ZombieZlo

Лоцман

Пост 20-Июн-2014 03:48 (спустя 4 часа)

[Q] 

вот такая бешеная любовь
хорошее кино
[Профиль]  [ЛС] 

dp

Корсар

Пост 20-Июн-2014 08:23 (спустя 4 часа)

[Q] 

найди 10 отличий

_________________
Мог стать отличным пианистом, а стал поскудным программистом
[Профиль]  [ЛС] 

Codename72

Лоцман

Пост 20-Июн-2014 12:52 (спустя 4 часа)

[Q] 

Николас Кейдж на плакате к кинофильму? ))) Шучу, но похож )))
Добавлено спустя 1 минута 35 секунд:
А-а-а ))) Сорри, точно он. Не внимателен я был... Сразу не воткнулся, что наш плакат скопирован )
[Профиль]  [ЛС] 

Иванов Игорь

Лоцман

Пост 20-Июн-2014 14:49 (спустя 1 час 57 минут)

[Q] 

мы не умеем не копировать чужой опыт)))
[Профиль]  [ЛС] 

лысый 9999

Морской Волк

Пост 20-Июн-2014 18:02 (спустя 3 часа)

[Q] 

фильм на любителя российского кино . fd
[Профиль]  [ЛС] 

dp

Корсар

Пост 21-Июн-2014 07:04 (спустя 13 часов)

[Q] 

муть та еще, хоть я и любитель фильмов в стиле бригада, но этот весь фильм гоняют морды друг другу в кафе набить, главный герой весь фильм почему то бегает..., но а концовка вообще мрак.

_________________
Мог стать отличным пианистом, а стал поскудным программистом
[Профиль]  [ЛС] 

litti

Флибустьер

Пост 21-Июн-2014 10:58 (спустя 3 часа)

[Q] 

Где восьмёрка, там и девятка... anime43

_________________
Маньяком быть ты не обязан,
но сексуальным должен быть...
[Профиль]  [ЛС] 

s_s

Гроза морей

Пост 22-Июн-2014 02:29 (спустя 15 часов)

[Q] 

давно ждал, спасибо:)

_________________
в себе самом добра со злом
[Профиль]  [ЛС] 

evilsan39

Корсар

1232

Пост 22-Июн-2014 19:07 (спустя 16 часов)

[Q] 

Глянем заценим ....

_________________

[Профиль]  [ЛС] 

ruskirus

Штурман

Пост 23-Июн-2014 13:14 (спустя 18 часов)

[Q] 

На любителя (((((((((((
[Профиль]  [ЛС] 

Танюха10988

Гроза морей

Пост 25-Июн-2014 20:40 (спустя 2 дня 7 часов)

[Q] 

Спасибо.......................
[Профиль]  [ЛС] 

Пост 31-Июл-2014 20:15 (спустя 1 месяц 5 дней)

Топик был перенесен из форума Новинки (HD|DVD|BD| TV|SAT|PDTV| - Rips) в форум Российские фильмы
kugesan
 

Scorpion7474

Флибустьер

Пост 01-Сен-2014 15:13 (спустя 2 месяца 6 дней)

[Q] 

Лови бочку Автору респект!!!
[Профиль]  [ЛС] 

SHERHAN

683

Пост 01-Сен-2014 15:36 (спустя 23 минуты)

[Q] 

обязательно посмотрю данный фильм

_________________
Рыжий хищник, полосатый,
В меру наглый и усатый,
Днём и ночью он не спит,
Зорко в монитор глядит!
[Профиль]  [ЛС] 

jofrei53

Корсар

Пост 14-Окт-2014 20:59 (спустя 1 месяц 13 дней)

[Q] 

Спасибо! Посмотрим с интересом... Спасибо!!! Автору респект!!!
[Профиль]  [ЛС] 

maki

Морской Волк

Пост 15-Окт-2014 11:27 (спустя 14 часов)

[Q] 

фильм на 3 .игра актеров понравилась
[Профиль]  [ЛС] 
Показать сообщения:    
Ответить на тему

Текущее время: Сегодня 11:59

Часовой пояс: GMT + 4



Вы не можете начинать темы
Вы не можете отвечать на сообщения
Вы не можете редактировать свои сообщения
Вы не можете удалять свои сообщения
Вы не можете голосовать в опросах
Вы не можете прикреплять файлы к сообщениям
Вы не можете скачивать файлы

▼ Вниз