ML
     
  Уважаемый Гость!
Вы можете поддержать проект и зарегистрироваться у наших партнеров - онлайн-стратегия MyLands. При регистрации в игре Вы получите код, который сможете активировать после регистрации на pirat.ca и получить 1000 дублонов.

Ваш код:
21acd5966619d49ad0b90c3305467b4646cc11a8
 
     

Жажда (Дмитрий Тюрин) [2014 г., Драма, WEB-DLRip] Sub (Eng) [hardsub]

Ответить на тему
 
Автор
Сообщение

Пост 23-Июн-2014 20:12

[Q] 

Resident

-Жажда--«Кино о настоящем» Производство: Россия, Всемирные Русские Студии
Режиссер: Дмитрий Тюрин
Жанр: Драма
Год выпуска: 2014 г.
Продолжительность: 01:37:57
Российская премьера: 20 февраля 2014, «ПРОвзгляд»
В ролях: Михаил Грубов, Сергей Лавыгин, Роман Курцын, Никита Остриков, Алексей Гуськов, Галина Бокашевская, Анна Банщикова, Светлана Смирнова-Марцинкевич, Георгий Соловьев, Андрей Попович-Описание: Костя, талантливый художник, возвращается из Чечни с обожжённым лицом и стойкой обидой на жизнь. Он замыкается в себе, мало с кем общается и рисует мрачные портреты в духе Гойи. Однажды бесследно пропадает его фронтовой друг, который во время боевой операции спас ему жизнь. Костя вместе с двумя товарищами отправляется на его поиски. Так, ведомый обстоятельствами, он начинает выходить за пределы замкнутого круга и пытается увидеть мир под другим углом.-Сэмпл КиноПоиск
Качество видео: WEB-DLRip
Контейнер: AVI
Видео кодек: XviD
Аудио кодек: AC3
Видео: XviD, 1797 Кбит/с, 720x400, 25 fps, 0.249 bit / pix
Аудио: 44.1 kHz, AC3, 2 ch, 192 Кбит/с
Cубтитры: Английские (hardsub)
General
Complete name : W:\Zhazhda.2013.O.WEBDLRip.1400Mb.avi
Format : AVI
Format/Info : Audio Video Interleave
File size : 1.36 GiB
Duration : 1h 37mn
Overall bit rate : 1 994 Kbps
Writing application : VirtualDubMod 1.5.10.3 | www.virtualdub-fr.org || (build 2550/release)
Writing library : VirtualDubMod build 2550/release
Video
ID : 0
Format : MPEG-4 Visual
Format profile : Advanced [email protected]
Format settings, BVOP : Yes
Format settings, QPel : No
Format settings, GMC : No warppoints
Format settings, Matrix : Default (MPEG)
Muxing mode : Packed bitstream
Codec ID : XVID
Codec ID/Hint : XviD
Duration : 1h 37mn
Bit rate : 1 792 Kbps
Width : 720 pixels
Height : 400 pixels
Display aspect ratio : 16:9
Frame rate : 25.000 fps
Color space : YUV
Chroma subsampling : 4:2:0
Bit depth : 8 bits
Scan type : Progressive
Bits/(Pixel*Frame) : 0.249
Stream size : 1.23 GiB (90%)
Writing library : XviD 1.2.1 (UTC 2008-12-04)
Audio
ID : 1
Format : AC-3
Format/Info : Audio Coding 3
Mode extension : CM (complete main)
Codec ID : 2000
Duration : 1h 37mn
Bit rate mode : Constant
Bit rate : 192 Kbps
Channel(s) : 2 channels
Channel positions : Front: L R
Sampling rate : 44.1 KHz
Bit depth : 16 bits
Stream size : 135 MiB (10%)
Alignment : Split accross interleaves
Interleave, duration : 40 ms (1.00 video frame)
Interleave, preload duration : 500 ms
Download / Скачать

Хотите скачать бесплатно? Зарегистрируйтесь на сайте (ссылка на регистрацию). Pirat.ca - самый быстрый торрент трекер в рунете!

Как скачивать  ·   Что такое торрент  ·   Рейтинг и ограничения

fleshiblood

Морской Волк

Пост 23-Июн-2014 21:31 (спустя 1 час 19 минут)

[Q] 

Спасибо. Супер!

_________________
result/3169756058] [/URL]
http://ellkor.ru/
[Профиль]  [ЛС] 

Пост 24-Июн-2014 01:32 (спустя 4 часа)

Топик был перенесен из форума Наше кино (Трюм) в форум Новинки (HD|DVD|BD| TV|SAT|PDTV| - Rips)
erchine
 

mazur1981

Шкипер

Пост 24-Июн-2014 21:09 (спустя 23 часа)

[Q] 

очень достойный фильм. посмотрел с удовольствием. спасибо!!!
[Профиль]  [ЛС] 

Romix

Штурман

Пост 28-Июн-2014 23:35 (спустя 4 дня)

[Q] 

Всем качать!!! Супер! !!!!!
[Профиль]  [ЛС] 

KadaFFi

Корсар

Пост 30-Июн-2014 19:41 (спустя 1 день 20 часов)

[Q] 

Фильм однозначно стоящий. Очень похож на "Живой". Всем качать!!!

_________________
[Профиль]  [ЛС] 

KoSkud

Флибустьер

Пост 01-Июл-2014 08:56 (спустя 13 часов)

[Q] 

В смысле в конце главный герой тоже оказался блуждающей душой убитого,пока весь фильм все думали,что он живой? Вы про это?

_________________
Учись-играя,играя-учись
[Профиль]  [ЛС] 

mazur1981

Шкипер

Пост 01-Июл-2014 17:12 (спустя 8 часов)

[Q] 

Абсолютно этот фильм не похож на "Живой". "Живой" - это больше экшен с мистикой, положенный на блюдце современной реальности. Оба фильма - хороши. Но этот - более жизненный, более настоящий, с большим упором на психологию и общение и отношение к жизни человека с поломанной на войне психикой. А Живой - более "киношный" если так сказать можно, более пафосный. Нет ни одного отечественного художественного фильма на тему войны в Чечне или жизни после нее, и нет практически ни одного документального на те же темы что я бы не посмотрел, но этот фильм поверьте - очень достойный. Не топ 10, или может даже 20 - это просто достойный фильм, который оценит каждый, интересующийся данной тематикой. Как-то так.
[Профиль]  [ЛС] 

KoSkud

Флибустьер

Пост 02-Июл-2014 17:00 (спустя 23 часа)

[Q] 

553736Абсолютно этот фильм не похож на "Живой". "Живой" - это больше экшен с мистикой, положенный на блюдце современной реальности. Оба фильма - хороши. Но этот - более жизненный, более настоящий, с большим упором на психологию и общение и отношение к жизни человека с поломанной на войне психикой. А Живой - более "киношный" если так сказать можно, более пафосный. Нет ни одного отечественного художественного фильма на тему войны в Чечне или жизни после нее, и нет практически ни одного документального на те же темы что я бы не посмотрел, но этот фильм поверьте - очень достойный. Не топ 10, или может даже 20 - это просто достойный фильм, который оценит каждый, интересующийся данной тематикой. Как-то так.
про отсутствие документальных и довольно-таки откровенных фильмов о Чечне,особенно о Грозном Вы уж как минимум загнули,сударь.уж этого-то хватает за глаза,в том числе и глазами тех,кто там был.
А про то,что фильм неплохой,согласен полностью.

_________________
Учись-играя,играя-учись
[Профиль]  [ЛС] 

Пост 31-Июл-2014 20:07 (спустя 29 дней)

Топик был перенесен из форума Новинки (HD|DVD|BD| TV|SAT|PDTV| - Rips) в форум Российские фильмы
kugesan
 

sey-seich

Лоцман

Пост 17-Окт-2014 10:25 (спустя 3 месяца 14 дней)

[Q] 

А без hardsubов, я так понимаю, данного фильма не существует?
Фильм, кстати, понравился. Спасибо!
[Профиль]  [ЛС] 
Показать сообщения:    
Ответить на тему

Текущее время: Сегодня 23:15

Часовой пояс: GMT + 4



Вы не можете начинать темы
Вы не можете отвечать на сообщения
Вы не можете редактировать свои сообщения
Вы не можете удалять свои сообщения
Вы не можете голосовать в опросах
Вы не можете прикреплять файлы к сообщениям
Вы не можете скачивать файлы

▼ Вниз