ML
     
  Уважаемый Гость!
Вы можете поддержать проект и зарегистрироваться у наших партнеров - онлайн-стратегия MyLands. При регистрации в игре Вы получите код, который сможете активировать после регистрации на pirat.ca и получить 1000 дублонов.

Ваш код:
dbd0d701284cde74a1f34d06ce20b7bc75a73e75
 
     

Burime: Игры в темноте (Илона Жунда, Мила Фахурдинова, Евгений Белов) [2014 г., Триллер, драма, WEB-DLRip] [iTunes]

Ответить на тему
 
Автор
Сообщение

Пост 23-Июн-2014 22:11

[Q] 

Resident

-Burime: Игры в темноте-- Производство: Россия, fat-free group
Режиссер: Илона Жунда, Мила Фахурдинова, Евгений Белов
Жанр: Триллер, драма
Год выпуска: 2014 г.
Продолжительность: 01:56:52
Российская премьера: 16 июня 2014
В ролях: Елена Антипова, Сергей Вершинин, Андрей Оганян, Евгений Сенченко, Анна Зарянкина, Мария Позднякова, Светлана Сандракова, Валерий Новиков, Юлия Железняк, Евгений Галенко-Описание: 11 безнадежно больных людей заперты на чердаке для смертельной игры. Но среди них есть тот, кто собрал их здесь и он — здоров. Если больные найдут здорового, то смогут продлить себе жизнь. Если нет — умрут.-Семпл КиноПоиск
Качество видео: WEB-DLRip
Контейнер: AVI
Видео кодек: XviD
Аудио кодек: AC3
Видео: 720x400 (1.80:1), 24.000 fps, XviD build 50 ~1441 kbps avg, 0.21 bit/pixel
Аудио: 48 kHz, AC3 Dolby Digital, 2/0 (L,R) ch, ~224 kbps
General
Complete name : W:\Igry.v.temnote.2014.WEBDLRip.1400Mb.avi
Format : AVI
Format/Info : Audio Video Interleave
File size : 1.37 GiB
Duration : 1h 56mn
Overall bit rate : 1 675 Kbps
Writing application : VirtualDubMod 1.5.10.2 (build 2540/release)
Writing library : VirtualDubMod build 2540/release
Video
ID : 0
Format : MPEG-4 Visual
Format profile : Advanced [email protected]
Format settings, BVOP : Yes
Format settings, QPel : No
Format settings, GMC : No warppoints
Format settings, Matrix : Default (MPEG)
Codec ID : XVID
Codec ID/Hint : XviD
Duration : 1h 56mn
Bit rate : 1 441 Kbps
Width : 720 pixels
Height : 400 pixels
Display aspect ratio : 16:9
Frame rate : 24.000 fps
Color space : YUV
Chroma subsampling : 4:2:0
Bit depth : 8 bits
Scan type : Progressive
Bits/(Pixel*Frame) : 0.209
Stream size : 1.18 GiB (86%)
Writing library : XviD 1.2.1 (UTC 2008-12-04)
Audio
ID : 1
Format : AC-3
Format/Info : Audio Coding 3
Mode extension : CM (complete main)
Codec ID : 2000
Duration : 1h 56mn
Bit rate mode : Constant
Bit rate : 224 Kbps
Channel(s) : 2 channels
Channel positions : Front: L R
Sampling rate : 48.0 KHz
Bit depth : 16 bits
Stream size : 187 MiB (13%)
Alignment : Split accross interleaves
Interleave, duration : 42 ms (1.00 video frame)
Interleave, preload duration : 500 ms
Download / Скачать

Хотите скачать бесплатно? Зарегистрируйтесь на сайте (ссылка на регистрацию). Pirat.ca - самый быстрый торрент трекер в рунете!

Как скачивать  ·   Что такое торрент  ·   Рейтинг и ограничения

viktor41

Шкипер

Пост 23-Июн-2014 22:47 (спустя 36 минут)

[Q] 

Спасибо ! Автору респект!!!
[Профиль]  [ЛС] 

Пост 24-Июн-2014 01:39 (спустя 2 часа 51 минута)

Топик был перенесен из форума Наше кино (Трюм) в форум Новинки (HD|DVD|BD| TV|SAT|PDTV| - Rips)
erchine
 

Axonoff

Штурман

Пост 01-Июл-2014 19:14 (спустя 7 дней)

[Q] 

Трейлер любопытный. Заценимс, спасибо
[Профиль]  [ЛС] 

лысый 9999

Морской Волк

Пост 02-Июл-2014 10:10 (спустя 14 часов)

[Q] 

на любителя rum
[Профиль]  [ЛС] 

Пост 31-Июл-2014 20:07 (спустя 29 дней)

Топик был перенесен из форума Новинки (HD|DVD|BD| TV|SAT|PDTV| - Rips) в форум Российские фильмы
kugesan
 

Sailor

Морской Волк

Пост 02-Авг-2014 18:03 (спустя 1 месяц)

[Q] 

Если бы ни эти тупые понты создателей фильма про Буриме какое-то и прочую чепуху, то фильм на один раз очень даже норм.
[Профиль]  [ЛС] 

kudrjavy

Флибустьер

Пост 12-Фев-2015 03:31 (спустя 6 месяцев 9 дней)

[Q] 

Хороший фильм,продолжение есть?
Интересно и необычно снят.Мне очень понравился!

_________________
Девушки-как печеньки: ломаются,пока не намокнут...
[Профиль]  [ЛС] 
Показать сообщения:    
Ответить на тему

Текущее время: Сегодня 18:32

Часовой пояс: GMT + 4



Вы не можете начинать темы
Вы не можете отвечать на сообщения
Вы не можете редактировать свои сообщения
Вы не можете удалять свои сообщения
Вы не можете голосовать в опросах
Вы не можете прикреплять файлы к сообщениям
Вы не можете скачивать файлы

▼ Вниз