ML
     
  Уважаемый Гость!
Вы можете поддержать проект и зарегистрироваться у наших партнеров - онлайн-стратегия MyLands. При регистрации в игре Вы получите код, который сможете активировать после регистрации на pirat.ca и получить 1000 дублонов.

Ваш код:
dbd0d701284cde74a1f34d06ce20b7bc75a73e75
 
     

Враги (Мария Можар) [2007 г., драма, история, DVDRip]

Ответить на тему
 
Автор
Сообщение

Пост 29-Июн-2014 14:44

[Q] 

AnastasWolf

-Враги- Год выпуска: 2007 г.
Производство: Россия, Беларусь
Жанр: драма, история
Продолжительность: 01:18:02
Режиссёр: Мария Можар
В ролях: Юлия Ауг, Аксель Шрик, Елена Яцко, Геннадий Гарбук, Олеся Пуховая, Зинаида Зубкова, Виктор Васильев, Денис Тарасенко, Иван Мацкевич, Ольга Антропова, Олег Ткачёв, Андрей Гладкий, Вячеслав Павлють-Описание: Действие картины «Враги» разворачивается в Беларуси, оккупированной фашистской армией во время Великой Отечественной Войны. В небольшой белорусской деревне расположился полк немецких солдат. Они все расселены по избам местных жителей. Две враждующие стороны учатся понимать друг друга, находить компромиссы, начинают видеть в своём враге человека, способного чувствовать, переживать, любить... Там, где начинается общий быт, идеология теряет свою силу.
Но хрупкий мир не может существовать долго. Война постепенно начинает втягивать всех героев в свой страшный водоворот, и никто не ожидает, чем это может обернуться для каждого...
Пропадает сын главной героини Натальи, 10-летний мальчишка... По слухам, ребёнок находится в плену у гитлеровцев — он арестован за попытку взорвать железную дорогу… Наталья в отчаянии, она пытается уговорить коменданта деревни Отто, который живёт у неё в хате, отпустить её единственного сына. Отто предлагает Наталье другой выход: привести на замену другого ребёнка...
-КиноПоиск
Качество видео: DVDRip
Контейнер: AVI
Видео кодек: XviD
Аудио кодек: AC3
Видео: 704x304 (2.35:1), 1965 kbps, 25 fps, 0.367 bit/pixel
Аудио: 448 kbps, 6 ch, 48.0 kHz
Cубтитры: русские (неотключаемые, на немецкую речь)
Фестиваль «Балтийские дебюты»: награда за лучшую женскую роль.
Фестиваль «Бригантина»: гран-при.
Продюсерский фестиваль«Кино-Ялта 2007»: специальное упоминание жюри.
VI Национальный фестиваль белорусских фильмов в Бресте: награда за лучшую мужскую роль; специальный приз в номинации «За лучший дебют в кино».
XIV Минский международный кинофестиваль «Лістапад-2007»: специальный диплом международного жюри «За верность традициям и стремление нового решения темы Великой Отечественной войны»; специальный приз «За лучший совместный белорусско-российский проект».
Общее
Полное имя : Враги.2007.[DVDRip].avi
Формат : AVI
Формат/Информация : Audio Video Interleave
Размер файла : 1,32 Гбайт
Продолжительность : 1 ч. 18 м.
Общий поток : 2420 Кбит/сек
Программа кодирования : VirtualDubMod 1.5.4.1 (build 2178/release)
Библиотека кодирования : VirtualDubMod build 2178/release
Видео
Идентификатор : 0
Формат : MPEG-4 Visual
Профиль формата : Advanced [email protected]
Параметр BVOP формата : Нет
Параметр QPel формата : Нет
Параметр GMC формата : Без точки перехода
Параметр матрицы формата : Выборочная
Идентификатор кодека : XVID
Идентификатор кодека/Подсказка : XviD
Продолжительность : 1 ч. 18 м.
Битрейт : 1965 Кбит/сек
Ширина : 704 пикселя
Высота : 304 пикселя
Соотношение сторон : 2,35:1
Частота кадров : 25,000 кадров/сек
Цветовое пространство : YUV
Субдискретизация насыщенности : 4:2:0
Битовая глубина : 8 бит
Тип развёртки : Прогрессивная
Метод сжатия : С потерями
Бит/(Пиксели*Кадры) : 0.367
Размер потока : 1,07 Гбайт (81%)
Библиотека кодирования : XviD 1.2.0.dev47 (UTC 2006-11-01)
Аудио
Идентификатор : 1
Формат : AC-3
Формат/Информация : Audio Coding 3
Идентификатор кодека : 2000
Продолжительность : 1 ч. 17 м.
Вид битрейта : Постоянный
Битрейт : 448 Кбит/сек
Каналы : 6 каналов
Частота : 48,0 КГц
Метод сжатия : С потерями
Размер потока : 250 Мбайт (19%)
Выравнивание : Разделение по промежуткам
Продолжительность промежутка : 96 мс. (2,40 видеокадра)
Время предзагрузки промежутка : 96 мс.
Язык : Russian
Download / Скачать

Хотите скачать бесплатно? Зарегистрируйтесь на сайте (ссылка на регистрацию). Pirat.ca - самый быстрый торрент трекер в рунете!

Как скачивать  ·   Что такое торрент  ·   Рейтинг и ограничения

Пост 29-Июн-2014 17:40 (спустя 2 часа 55 минут)

Топик был перенесен из форума Наше кино (Трюм) в форум Российские фильмы
gross1978
 
Показать сообщения:    
Ответить на тему

Текущее время: Сегодня 18:33

Часовой пояс: GMT + 4



Вы не можете начинать темы
Вы не можете отвечать на сообщения
Вы не можете редактировать свои сообщения
Вы не можете удалять свои сообщения
Вы не можете голосовать в опросах
Вы не можете прикреплять файлы к сообщениям
Вы не можете скачивать файлы

▼ Вниз