ML
     
  Уважаемый Гость!
Вы можете поддержать проект и зарегистрироваться у наших партнеров - онлайн-стратегия MyLands. При регистрации в игре Вы получите код, который сможете активировать после регистрации на pirat.ca и получить 1000 дублонов.

Ваш код:
8b29d0f8cd61fe457e59e7df0aa1fab41a2b88b9
 
     

Цель вижу (Евгений Сокуров) [2013 г., военный, драма, DVDRip]

Ответить на тему
 
Автор
Сообщение

Пост 18-Июл-2014 09:46

[Q] 

ara1205

-Цель вижу-- Производство: Россия
Год выпуска: 2013 г.
Жанр: военный, драма
Продолжительность: 01:29:03-Режиссер: Евгений Сокуров-В ролях: Наталья Анисимова, Александра Булычёва, Эльвира Шияпова, Елена Цыплакова, Сергей Удовик, Варвара Обидор, Екатерина Муратова, Аделина Гизатуллина, Анастасия Лашкова, Татьяна Опарина-Кошеляева-Описание: Семь девушек, совсем еще юных, выбрали себе нелегкий путь: в начале Великой Отечественной войны они окончили школу снайперов и сразу отправились на фронт. И вот они уже совсем одни пред лицом многочисленных врагов. Как поступить: бежать и спасаться, пока еще есть время, или смело шагнуть навстречу гибели?- -Качество видео: DVDRip
Контейнер: AVI
Видео кодек: XviD
Аудио кодек: AC3
Видео: 720x400, 25,000 fps, 1743 kbps avg, 0.242 bit/pixel
Аудио: 48 kHz, AC3 Dolby Digital, 3/2 (L,C,R,l,r) + LFE ch, ~448 kbps
Cубтитры: отсутствуют-
Общее
Полное имя : C:\Users\Ромик\Pictures\Цель вижу\Cel.Viju.2013.O.DVDRip.1400MB.avi
Формат : AVI
Формат/Информация : Audio Video Interleave
Размер файла : 1,37 Гбайт
Продолжительность : 1 ч. 29 м.
Общий поток : 2201 Кбит/сек
Программа кодирования : VirtualDubMod 1.5.10.3 | www.virtualdub-fr.org || (build 2550/release)
Библиотека кодирования : VirtualDubMod build 2550/release
Видео
Идентификатор : 0
Формат : MPEG-4 Visual
Профиль формата : Advanced [email protected]
Параметр BVOP формата : 2
Параметр QPel формата : Нет
Параметр GMC формата : Без точки перехода
Параметр матрицы формата : Default (MPEG)
Идентификатор кодека : XVID
Идентификатор кодека/Подсказка : XviD
Продолжительность : 1 ч. 29 м.
Битрейт : 1743 Кбит/сек
Ширина : 720 пикселей
Высота : 400 пикселей
Соотношение сторон : 16:9
Частота кадров : 25,000 кадров/сек
Цветовое пространство : YUV
Субдискретизация насыщенности : 4:2:0
Битовая глубина : 8 бит
Тип развёртки : Прогрессивная
Метод сжатия : С потерями
Бит/(Пиксели*Кадры) : 0.242
Размер потока : 1,08 Гбайт (79%)
Библиотека кодирования : XviD 1.2.1 (UTC 2008-12-04)
Аудио
Идентификатор : 1
Формат : AC-3
Формат/Информация : Audio Coding 3
Расширение режима : CM (complete main)
Параметр Endianness формата : Big
Идентификатор кодека : 2000
Продолжительность : 1 ч. 29 м.
Вид битрейта : Постоянный
Битрейт : 448 Кбит/сек
Каналы : 6 каналов
Расположение каналов : Front: L C R, Side: L R, LFE
Частота : 48,0 КГц
Битовая глубина : 16 бит
Метод сжатия : С потерями
Размер потока : 285 Мбайт (20%)
Выравнивание : Разделение по промежуткам
Продолжительность промежутка : 40 мс. (1,00 видеокадр)
Время предзагрузки промежутка : 500 мс.
-
-
Download / Скачать

Хотите скачать бесплатно? Зарегистрируйтесь на сайте (ссылка на регистрацию). Pirat.ca - самый быстрый торрент трекер в рунете!

Как скачивать  ·   Что такое торрент  ·   Рейтинг и ограничения

Танюха10988

Гроза морей

Пост 19-Июл-2014 20:47 (спустя 1 день 11 часов)

[Q] 

Спасибо!!!
[Профиль]  [ЛС] 

kinstintin

Гроза морей

Пост 19-Июл-2014 22:11 (спустя 1 час 24 минуты)

[Q] 

Ну что ж... оценим очередной шедевр нашего кинематографа...
[Профиль]  [ЛС] 

Stalker_29

Корсар

Пост 20-Июл-2014 11:22 (спустя 13 часов)

[Q] 

Ну чисто из-за уважения к раздающему и первого скриншота!!!
[Профиль]  [ЛС] 

Jek@

Легенда

Пост 22-Июл-2014 18:16 (спустя 2 дня 6 часов)

[Q] 

Спасибо!!! .
[Профиль]  [ЛС] 

Hausser

Гроза морей

Пост 01-Авг-2014 01:53 (спустя 9 дней)

[Q] 

за раздачу - спасибо. ИМХО, фильм - проходной и дешево снятый.
[Профиль]  [ЛС] 

Полтос

Флибустьер

Пост 03-Авг-2014 00:25 (спустя 1 день 22 часа)

[Q] 

Ну что я могу сказать по увиденному... Попытка снять ремейк "А зори здесь тихие" - не удалась. Фильм вполне смотрибельный, но чувство неудовлетворенности от просмотра присутствует. На эту тему есть лучшие фильмы и сериалы, но для любителей лицезрения поведения слабого пола во время ведения военных действий - может и пойдет...
На любителя

_________________
Первый закон Прапорщика: Всё что поднимаемо - относительно!)
[Профиль]  [ЛС] 

VNXX

Корсар

Пост 03-Авг-2014 12:43 (спустя 12 часов)

[Q] 

Главное, тема сисек раскрыта.
[Профиль]  [ЛС] 

Relax

Морской Волк

Пост 05-Авг-2014 12:02 (спустя 1 день 23 часа)

[Q] 

только из-за первого скрина стоит скачать
[Профиль]  [ЛС] 

kolipeq843

Морской Волк

Пост 06-Авг-2014 16:14 (спустя 1 день 4 часа)

[Q] 

скачай первый скрин и передёрни затвор
[Профиль]  [ЛС] 

youfate

Корсар

Пост 09-Авг-2014 19:19 (спустя 3 дня)

[Q] 

ну что же, заценим Раздающему респект!
[Профиль]  [ЛС] 
Показать сообщения:    
Ответить на тему

Текущее время: Сегодня 21:26

Часовой пояс: GMT + 4



Вы не можете начинать темы
Вы не можете отвечать на сообщения
Вы не можете редактировать свои сообщения
Вы не можете удалять свои сообщения
Вы не можете голосовать в опросах
Вы не можете прикреплять файлы к сообщениям
Вы не можете скачивать файлы

▼ Вниз