ML
     
  Уважаемый Гость!
Вы можете поддержать проект и зарегистрироваться у наших партнеров - онлайн-стратегия MyLands. При регистрации в игре Вы получите код, который сможете активировать после регистрации на pirat.ca и получить 1000 дублонов.

Ваш код:
93dbf9fbdfa06c41d3b5a2c3921149ba36168c41
 
     

Цель вижу (Евгений Сокуров) [2013 г., военный, драма, DVDRip]

Ответить на тему
 
Автор
Сообщение

Пост 18-Июл-2014 13:11

[Q] 

ara1205

-Цель вижу-- Производство: Россия
Год выпуска: 2013 г.
Жанр: военный, драма
Продолжительность: 01:29:03-Режиссер: Евгений Сокуров-В ролях: Наталья Анисимова, Александра Булычёва, Эльвира Шияпова, Елена Цыплакова, Сергей Удовик, Варвара Обидор, Екатерина Муратова, Аделина Гизатуллина, Анастасия Лашкова, Татьяна Опарина-Кошеляева-Описание: Семь девушек, совсем еще юных, выбрали себе нелегкий путь: в начале Великой Отечественной войны они окончили школу снайперов и сразу отправились на фронт. И вот они уже совсем одни пред лицом многочисленных врагов. Как поступить: бежать и спасаться, пока еще есть время, или смело шагнуть навстречу гибели?- -Качество видео: DVDRip
Контейнер: AVI
Видео кодек: XviD
Аудио кодек: MP3
Видео: 688x384, 25,000 fps, 1030 kbps avg, 0.156 bit/pixel
Аудио: 48 kHz, MPEG Layer 3, 2 ch, ~128.00 kbps avg
Cубтитры: отсутствуют-
Общее
Полное имя : C:\Users\Ромик\Pictures\Цель вижу\Новая папка\Cel.Viju.2013.DVDRip.745Mb.avi
Формат : AVI
Формат/Информация : Audio Video Interleave
Размер файла : 744 Мбайт
Продолжительность : 1 ч. 29 м.
Общий поток : 1168 Кбит/сек
Название фильма : Cel.Viju.2013.DVDRip.745Mb.[pirat.ca]
Программа кодирования : VirtualDubMod 1.5.10.2 (build 2540/release)
Примечание : http://pirat.ca
Видео
Идентификатор : 0
Формат : MPEG-4 Visual
Профиль формата : Advanced [email protected]
Параметр BVOP формата : 2
Параметр QPel формата : Нет
Параметр GMC формата : Без точки перехода
Параметр матрицы формата : Default (MPEG)
Идентификатор кодека : XVID
Идентификатор кодека/Подсказка : XviD
Продолжительность : 1 ч. 29 м.
Битрейт : 1030 Кбит/сек
Ширина : 688 пикселей
Высота : 384 пикселя
Соотношение сторон : 16:9
Частота кадров : 25,000 кадров/сек
Цветовое пространство : YUV
Субдискретизация насыщенности : 4:2:0
Битовая глубина : 8 бит
Тип развёртки : Прогрессивная
Метод сжатия : С потерями
Бит/(Пиксели*Кадры) : 0.156
Размер потока : 656 Мбайт (88%)
Библиотека кодирования : XviD 1.2.0.dev47 (UTC 2006-11-01)
Аудио
Идентификатор : 1
Формат : MPEG Audio
Версия формата : Version 1
Профиль формата : Layer 3
Идентификатор кодека : 55
Идентификатор кодека/Подсказка : MP3
Продолжительность : 1 ч. 29 м.
Вид битрейта : Постоянный
Битрейт : 128 Кбит/сек
Каналы : 2 канала
Частота : 48,0 КГц
Метод сжатия : С потерями
Размер потока : 81,5 Мбайт (11%)
Выравнивание : Соединение по промежуткам
Продолжительность промежутка : 40 мс. (1,00 видеокадр)
Время предзагрузки промежутка : 504 мс.
Библиотека кодирования : LAMELAME_MAJOR_VERSI
-
-
-
Download / Скачать

Хотите скачать бесплатно? Зарегистрируйтесь на сайте (ссылка на регистрацию). Pirat.ca - самый быстрый торрент трекер в рунете!

Как скачивать  ·   Что такое торрент  ·   Рейтинг и ограничения

sokol77

Шкипер

128

Пост 18-Июл-2014 13:48 (спустя 36 минут)

[Q] 

Лови бочку Спасибо!!! будем смотреть)
[Профиль]  [ЛС] 

андрей иванов

Морской Волк

Пост 18-Июл-2014 16:57 (спустя 3 часа)

[Q] 

спасибо обязательно гляну)
[Профиль]  [ЛС] 

maglot129

Корсар

Пост 18-Июл-2014 17:45 (спустя 48 минут)

[Q] 

посмотрим,Бочка!
[Профиль]  [ЛС] 

FinistAira

Морской Волк

Пост 18-Июл-2014 19:29 (спустя 1 час 44 минуты)

[Q] 

Благодарю,заценим.
[Профиль]  [ЛС] 

Dimson

Шкипер

Пост 18-Июл-2014 23:45 (спустя 4 часа)

[Q] 


Ордена Красной Звезды слева? Значит, просмотром можно не заморачиваться, будет очередная лубочная шняга.
[Профиль]  [ЛС] 

srg078rus

Корсар

97

Пост 19-Июл-2014 11:22 (спустя 11 часов)

[Q] 

Спасибо!!!

_________________
[Профиль]  [ЛС] 

kromle

Лоцман

Пост 20-Июл-2014 12:24 (спустя 1 день 1 час)

[Q] 

придур до 42-го года так и носили
[Профиль]  [ЛС] 

alexey3312

Флибустьер

398

Пост 20-Июл-2014 12:59 (спустя 34 минуты)

[Q] 

559979
Ордена Красной Звезды слева? Значит, просмотром можно не заморачиваться, будет очередная лубочная шняга.
Лучше и не заморачивайтесь, меньше знаний - легче голова.
"Первоначально орден носили на левой стороне груди. С июня 1943 года ордена, прикрепляемые на штифтах, переместили на правую сторону груди и ввели планки с лентами для ношения их взамен орденов и медалей на полевой и повседневной форме."

_________________
Металлисты - это самый развитой и передовой класс, и никто не может отрицать, что это и есть передовой отряд всего пролетариата. В.И. Ленин
[Профиль]  [ЛС] 

Faust1941

Штурман

Пост 20-Июл-2014 14:01 (спустя 1 час 2 минуты)

[Q] 

У немцев петлицы были веселей))) Внатуре накой знать с какой стороны носили ордена, бесполезное знание в голове. Расчитываете на временные петли или так батхёрт реконструктора?
[Профиль]  [ЛС] 

Танюха10988

Гроза морей

Пост 24-Июл-2014 02:39 (спустя 3 дня)

[Q] 

Спасибо Лови бочку
[Профиль]  [ЛС] 
Показать сообщения:    
Ответить на тему

Текущее время: Сегодня 20:24

Часовой пояс: GMT + 4



Вы не можете начинать темы
Вы не можете отвечать на сообщения
Вы не можете редактировать свои сообщения
Вы не можете удалять свои сообщения
Вы не можете голосовать в опросах
Вы не можете прикреплять файлы к сообщениям
Вы не можете скачивать файлы

▼ Вниз