ML
     
  Уважаемый Гость!
Вы можете поддержать проект и зарегистрироваться у наших партнеров - онлайн-стратегия MyLands. При регистрации в игре Вы получите код, который сможете активировать после регистрации на pirat.ca и получить 1000 дублонов.

Ваш код:
59354507ba913a0948d1a8f2e30f2e04c4cd7b9b
 
     

Форт Росс: В поисках приключений (Юрий Мороз) [2014 г., Приключения, WEBRip] (Оригинальное)

Ответить на тему
 
Автор
Сообщение

Пост 25-Июл-2014 16:05

[Q] 

Resident

-Форт Росс: В поисках приключений-- Производство: Россия, Dreamteam Media
Режиссер: Юрий Мороз
Жанр: Приключения
Год выпуска: 2014 г.
Продолжительность: 01:33:01
Российская премьера: 12 июня 2014, «DreamTeam»
Дата выхода DVD: 14 августа 2014, «CD Land», ...
В ролях: Максим Матвеев, Анна Старшенбаум, Лайа Коста, Алексей Кирсанов, Максим Виноградов, Артем Ткаченко, Илья Соболев, Александр Петров, Маруся Климова, Кирилл Плетнёв-Описание: Раскрыта одна из главных интриг российской истории! Как вышло, что в XIX веке Россия навсегда лишилась своих земель в Северной Америке? Ведь ей принадлежала огромная территория от Аляски до Северной Калифорнии! В поисках ответа группа тележурналистов — интеллектуал Дмитрий, простодушный Фимка и красавица Марго — путешествуют во времени и пространстве, попадая то в царские дворцы, то в вигвамы индейцев.-
Качество видео: WEBRip
Контейнер: AVI
Видео кодек: XviD
Аудио кодек: AC3
Видео: XviD, 1775 Кбит/с, 720x304
Аудио: AC3, 2 ch, 320 Кбит/с
Cубтитры: отсутствуют
Общее
Полное имя : W:\Fort.Ross.2014.O.WEBRip.1400Mb.avi
Формат : AVI
Формат/Информация : Audio Video Interleave
Размер файла : 1,37 Гбайт
Продолжительность : 1 ч. 33 м.
Общий поток : 2106 Кбит/сек
Программа кодирования : VirtualDubMod 1.5.10.2 (build 2540/release)
Библиотека кодирования : VirtualDubMod build 2540/release
Видео
Идентификатор : 0
Формат : MPEG-4 Visual
Профиль формата : Advanced [email protected]
Параметр BVOP формата : 2
Параметр QPel формата : Нет
Параметр GMC формата : Без точки перехода
Параметр матрицы формата : Default (MPEG)
Идентификатор кодека : XVID
Идентификатор кодека/Подсказка : XviD
Продолжительность : 1 ч. 33 м.
Битрейт : 1776 Кбит/сек
Ширина : 720 пикс.
Высота : 304 пикс.
Соотношение сторон : 2,35:1
Частота кадров : 25,000 кадр/сек
Цветовое пространство : YUV
Подвыборка цветности : 4:2:0
Битовая глубина : 8 бит
Тип развёртки : Прогрессивная
Метод сжатия : С потерями
Бит/(Пиксели*Кадры) : 0.325
Размер потока : 1,15 Гбайт (84%)
Библиотека кодирования : XviD 1.2.1 (UTC 2008-12-04)
Аудио
Идентификатор : 1
Формат : AC-3
Формат/Информация : Audio Coding 3
Расширение режима : CM (complete main)
Идентификатор кодека : 2000
Продолжительность : 1 ч. 33 м.
Вид битрейта : Постоянный
Битрейт : 320 Кбит/сек
Канал(ы) : 2 канала(ов)
Расположение каналов : Front: L R
Частота : 48,0 КГц
Битовая глубина : 16 бит
Метод сжатия : С потерями
Размер потока : 213 Мбайт (15%)
Выравнивание : Разделение по промежуткам
Продолжительность промежутка : 40 мс. (1,00 видеокадр)
Время предзагрузки промежутка : 500 ms
Download / Скачать

Хотите скачать бесплатно? Зарегистрируйтесь на сайте (ссылка на регистрацию). Pirat.ca - самый быстрый торрент трекер в рунете!

Как скачивать  ·   Что такое торрент  ·   Рейтинг и ограничения

Пост 25-Июл-2014 20:43 (спустя 4 часа)

Топик был перенесен из форума Наше кино (Трюм) в форум Новинки (HD|DVD|BD| TV|SAT|PDTV| - Rips)
kugesan
 

Alexlogin

Гроза морей

105

Пост 25-Июл-2014 21:18 (спустя 5 часов)

[Q] 

Спасибо за раздачу
[Профиль]  [ЛС] 

Stalker_29

Корсар

Пост 26-Июл-2014 01:12 (спустя 3 часа)

[Q] 

Ну глянем конечно, автору раздачи спс!!!
[Профиль]  [ЛС] 

ягжин

Гроза морей

Пост 26-Июл-2014 11:45 (спустя 10 часов)

[Q] 

Спасибо! Автору респект!!!
[Профиль]  [ЛС] 

Cap Flint

Морской Волк

194

Пост 26-Июл-2014 12:56 (спустя 1 час 11 минут)

[Q] 

Спасибо! Автору респект!!!

_________________
[Профиль]  [ЛС] 

Goodwin277

Корсар

Пост 26-Июл-2014 22:24 (спустя 9 часов)

[Q] 

Фильм на УРА! Всем качать!!!
[Профиль]  [ЛС] 

bs_z03

Шкипер

Пост 26-Июл-2014 22:54 (спустя 29 минут)

[Q] 

отпишитесь, стоит глянуть?
[Профиль]  [ЛС] 

kentovito

Штурман

Пост 27-Июл-2014 06:41 (спустя 7 часов)

[Q] 

562849отпишитесь, стоит глянуть?
стоит, есть ржачные моменты

_________________
Крутые видосы
[Профиль]  [ЛС] 

Танюха10988

Гроза морей

Пост 01-Авг-2014 14:36 (спустя 5 дней)

[Q] 

Спасибо Автору респект!!!
[Профиль]  [ЛС] 

polozm

Легенда

Пост 01-Авг-2014 20:04 (спустя 5 часов)

[Q] 

прикололо только подъелдыкивание обамы :) фильм не досмотрел....

_________________
mac mini -2.0 GHz Intel Core i7/ 8 GB DDR3. /Intel HD 3000(512mb)OS X 10.9 Mavericks
[Профиль]  [ЛС] 

Hausser

Гроза морей

Пост 03-Авг-2014 22:44 (спустя 2 дня 2 часа)

[Q] 

Очередная отечественная тягомотина.
[Профиль]  [ЛС] 

zvyagin_da

Пост 04-Авг-2014 08:05 (спустя 9 часов)

[Q] 

Фильм стоит посмотреть!!!
[Профиль]  [ЛС] 

youfate

Корсар

Пост 09-Авг-2014 19:31 (спустя 5 дней)

[Q] 

Спасибо, фильм разок глянуть можно
[Профиль]  [ЛС] 

Aleks44

Гроза морей

Пост 14-Авг-2014 12:57 (спустя 4 дня)

[Q] 

Интересный фильм, взяли идею фильма Мы из будущего
[Профиль]  [ЛС] 

OleksBy

Корсар

Пост 15-Авг-2014 11:59 (спустя 23 часа)

[Q] 

если и снято как там, посмотреть стоит Спасибо!!!
[Профиль]  [ЛС] 

Макs

Лоцман

Пост 15-Авг-2014 18:10 (спустя 6 часов)

[Q] 

Фильм- ГОВНО ПОЛНОЕ!!! :59:
[Профиль]  [ЛС] 

Skat.56

Гроза морей

448

Пост 15-Авг-2014 18:10 (спустя 3 секунды)

[Q] 

Ночной дозор ето - горсвет, чукча дворник ето патруль времени....................
Ну все понятно, а я грузчик супермен!
Кстати американскую "Обаму" пошутили хорошо fg
Фильм легкий мозг и желудок не напрягает. Воощем посмотреть можно.
[Профиль]  [ЛС] 

kisu

Гроза морей

Пост 15-Авг-2014 21:28 (спустя 3 часа)

[Q] 

чушь однако!но автору спасибо!!!
[Профиль]  [ЛС] 

dambrina

Флибустьер

Пост 30-Окт-2014 23:56 (спустя 2 месяца 15 дней)

[Q] 

Спасибо!!!
[Профиль]  [ЛС] 

Scorpion7474

Флибустьер

Пост 04-Ноя-2014 19:02 (спустя 4 дня)

[Q] 

Лови бочку
[Профиль]  [ЛС] 

Scorpion7474

Флибустьер

Пост 07-Ноя-2014 19:22 (спустя 3 дня)

[Q] 

легкий хороший фильм понравился Лови бочку
[Профиль]  [ЛС] 

denis1705

Корсар

Пост 08-Ноя-2014 22:56 (спустя 1 день 3 часа)

[Q] 

Глянем! Лови бочку
[Профиль]  [ЛС] 
Показать сообщения:    
Ответить на тему

Текущее время: Сегодня 16:09

Часовой пояс: GMT + 4



Вы не можете начинать темы
Вы не можете отвечать на сообщения
Вы не можете редактировать свои сообщения
Вы не можете удалять свои сообщения
Вы не можете голосовать в опросах
Вы не можете прикреплять файлы к сообщениям
Вы не можете скачивать файлы

▼ Вниз