ML
     
  Уважаемый Гость!
Вы можете поддержать проект и зарегистрироваться у наших партнеров - онлайн-стратегия MyLands. При регистрации в игре Вы получите код, который сможете активировать после регистрации на pirat.ca и получить 1000 дублонов.

Ваш код:
1a5b0a965618b2c406d4279ec9924ee6282c60cf
 
     

Путь самца (Сергей Черных) [2008 г., мелодрама, SATRip]

Ответить на тему
 
Автор
Сообщение

Пост 05-Авг-2014 14:11

[Q] 

mishanya___

-Путь самца--
Производство: Россия
Режиссер: Сергей Черных
Жанр: мелодрама
Год выпуска: 2008 г.
Продолжительность: 01:43:06-В ролях:
Роман Трахтенберг, Екатерина Редникова, Борис Хвошнянский, Ирина Горячева, Роман Рязанцев, Анна Лутцева, Эрнест Тимерханов, Виталий Такс, Ольга Сухорукова, Марианна Коробейникова-Описание:
«Путь самца» — первый мужской сериал, лишенный блатного налета, псевдоромантических сентенций и мелодраматический самоистязаний, бескомпромиссно честный взгляд на отношения мужчин и женщин, лишённый чуждой этой форме явлений политкорректности. Это истории о «сексе в большом городе» глазами женщин и мужчин, живущих в российском мегаполисе, это — вызов нормам ханжеской морали, кричащей о толерантности и целомудрии, но погрязшей в угнетении и разврате, это — горькое лекарство, едкая истина о героях нашего времени, вынужденных жить по законам того общества, которому они служат. И в этой безысходной точности главная нота всех переплетающихся сюжетов, где жизнь сама всё расставит по местам, и вчерашнее чудовище может стать красавцем, а золушка превратиться в ведьму.
За всем этим шорохом слов и мельканием кадров, несомненный и главный источник переполняющих душу метаний — тоска по идеальной любви и невозможность её обрести или задержать навечно. Каждый их героев одинок и одинок по-своему, с возрастом одиночество усугубляется, закрепляясь логически, оставляя слабую надежду, что всё может быть иначе в мире, где всеми правит прагматизм…
-

Качество видео: SATRip
Контейнер: AVI
Видео кодек: XviD
Аудио кодек: AC3
Видео: 720x448; 1630 Kbps; 25.000 fps; 0.202 Bit/Pixel
Аудио: 256 kbps; 2 ch; 48.0 kHz
Format : AVI
Format/Info : Audio Video Interleave
Format profile : OpenDML
File size : 1.37 GiB
Duration : 1h 43mn
Overall bit rate : 1 899 Kbps
Writing application : Lavf51.12.1
Video
ID : 0
Format : MPEG-4 Visual
Format profile : [email protected]
Format settings, BVOP : No
Format settings, QPel : No
Format settings, GMC : No warppoints
Format settings, Matrix : Default (H.263)
Codec ID : FMP4
Duration : 1h 43mn
Bit rate : 1 630 Kbps
Width : 720 pixels
Height : 448 pixels
Display aspect ratio : 16:10
Frame rate : 25.000 fps
Color space : YUV
Chroma subsampling : 4:2:0
Bit depth : 8 bits
Scan type : Progressive
Compression mode : Lossy
Bits/(Pixel*Frame) : 0.202
Stream size : 1.17 GiB (86%)
Writing library : Lavc51.40.4
Audio
ID : 1
Format : AC-3
Format/Info : Audio Coding 3
Mode extension : CM (complete main)
Format settings, Endianness : Big
Codec ID : 2000
Duration : 1h 43mn
Bit rate mode : Constant
Bit rate : 256 Kbps
Channel(s) : 2 channels
Channel positions : Front: L R
Sampling rate : 48.0 KHz
Bit depth : 16 bits
Compression mode : Lossy
Stream size : 189 MiB (13%)
Alignment : Aligned on interleaves
Interleave, duration : 32 ms (0.80 video frame)
Interleave, preload duration : 32 ms
Download / Скачать

Хотите скачать бесплатно? Зарегистрируйтесь на сайте (ссылка на регистрацию). Pirat.ca - самый быстрый торрент трекер в рунете!

Как скачивать  ·   Что такое торрент  ·   Рейтинг и ограничения

MaXoR

Флибустьер

1474

Пост 05-Авг-2014 14:51 (спустя 40 минут)

[Q] 

Хороший фильм, для кого-то даже познавательным будет). Трахтенберг клевый был чел.

_________________
Живы будем - не помрем!
[Профиль]  [ЛС] 

Дядя Витя

53904

Пост 05-Авг-2014 14:54 (спустя 2 минуты)

[Q] 

565894Трахтенберг клевый был чел.
+100500-mishanya___, это кино по мотивам одноимённой книги или нет ?
Раздающему респект!

_________________
?
[Профиль]  [ЛС] 

mishanya___ ®

21467

Пост 05-Авг-2014 15:45 (спустя 50 минут)

[Q] 

VIT74, ага
[Профиль]  [ЛС] 

Пост 05-Авг-2014 16:45 (спустя 1 час)

Топик был перенесен из форума Наше кино (Трюм) в форум Российские фильмы
TERMOS
 

Дядя Витя

53904

Пост 05-Авг-2014 16:58 (спустя 1 час 13 минут)

[Q] 

mishanya___, читал когда-то это произведение.
Произвело, помню, впечатление )

_________________
?
[Профиль]  [ЛС] 

mishanya___ ®

21467

Пост 05-Авг-2014 17:07 (спустя 8 минут)

[Q] 

Приятного просмотра
[Профиль]  [ЛС] 

Wolf111

57094

Пост 05-Авг-2014 18:47 (спустя 1 час 40 минут)

[Q] 

На любителя Автору респект!!!
[Профиль]  [ЛС] 

kiss2007

Морской Волк

Пост 05-Авг-2014 20:05 (спустя 1 час 17 минут)

[Q] 

Лови бочку зачотно)))
[Профиль]  [ЛС] 

Alexlogin

Гроза морей

105

Пост 06-Авг-2014 11:47 (спустя 15 часов)

[Q] 

Спасибо скачаю
[Профиль]  [ЛС] 

kiss2007

Морской Волк

Пост 06-Авг-2014 13:08 (спустя 1 час 20 минут)

[Q] 

Качать всем без исключений и наслаждаться))))!
Всем качать!!!
Супер!
[Профиль]  [ЛС] 
Показать сообщения:    
Ответить на тему

Текущее время: Сегодня 23:49

Часовой пояс: GMT + 4



Вы не можете начинать темы
Вы не можете отвечать на сообщения
Вы не можете редактировать свои сообщения
Вы не можете удалять свои сообщения
Вы не можете голосовать в опросах
Вы не можете прикреплять файлы к сообщениям
Вы не можете скачивать файлы

▼ Вниз