ML
     
  Уважаемый Гость!
Вы можете поддержать проект и зарегистрироваться у наших партнеров - онлайн-стратегия MyLands. При регистрации в игре Вы получите код, который сможете активировать после регистрации на pirat.ca и получить 1000 дублонов.

Ваш код:
dbd0d701284cde74a1f34d06ce20b7bc75a73e75
 
     

Апельсиновый сок (Андрей Прошкин) [2010 г., Мелодрама, комедия, SATRip]

Ответить на тему
 
Автор
Сообщение

Пост 16-Янв-2012 13:44

[Q] 

Kotangens

Шкипер

Апельсиновый сок
Год выпуска: 2010
Жанр: Мелодрама, комедия
Продолжительность:01:30:10
Режиссер: Андрей Прошкин
В ролях: Ингеборга Дапкунайте, Андрей Панин, Александр Яценко, Ольга Яковлева, Михаил Козаков, Александра Скачкова, Лада Марис
Описание:
История о тяжело больном американце, приехавшем в Россию, чтобы добровольно уйти из жизни, ведь эвтаназия в Америке запрещена.
На подмосковной даче живут трое: Стивен — хозяин дома, американский миллионер русского происхождения; Егор — молодой врач-аспирант и Даша — очередная сиделка Стивена. Стивен, пытаясь избавиться от повседневной скуки, превращает жизнь Даши в каждодневный кошмар. Даша, обладая сильным и независимым характером, но, находясь в тяжелой финансовой ситуации, вынуждена выполнять его причуды и капризы. Егор оказывается невольно втянутым в их взаимоотношения…
Источник/Качество: SATRip
Формат: AVI
Видео кодек: XviD
Аудио кодек: MPEG Audio
Видео: 704x384 (16:9), 25.000 fps,XVID MPEG-4, 1 969 kbps avg, 0.271 bit/pixel
Аудио: 48 kHz, MPEG Layer 3, 2 ch, 128.00 kbps avg
Код:
General
Complete name : E:\VIDEO\Apelsinovii.sok.2010.XviD.SATRip.avi
Format : AVI
Format/Info : Audio Video Interleave
File size : 1.24 GiB
Duration : 1h 30mn
Overall bit rate : 1 969 Kbps
Writing application : VirtualDubMod 1.5.10.2 (build 2540/release)
Writing library : VirtualDubMod build 2540/release
Video
ID : 0
Format : MPEG-4 Visual
Format profile : Advanced [email protected]
Format settings, BVOP : Yes
Format settings, QPel : No
Format settings, GMC : No warppoints
Format settings, Matrix : Default (H.263)
Codec ID : XVID
Codec ID/Hint : XviD
Duration : 1h 30mn
Bit rate : 1 831 Kbps
Width : 704 pixels
Height : 384 pixels
Display aspect ratio : 16:9
Frame rate : 25.000 fps
Resolution : 8 bits
Colorimetry : 4:2:0
Scan type : Progressive
Bits/(Pixel*Frame) : 0.271
Stream size : 1.15 GiB (93%)
Writing library : XviD 1.2.1 (UTC 2008-12-04)
Audio
ID : 1
Format : MPEG Audio
Format version : Version 1
Format profile : Layer 3
Mode : Joint stereo
Format_Settings_ModeExtension : MS Stereo
Codec ID : 55
Codec ID/Hint : MP3
Duration : 1h 30mn
Bit rate mode : Constant
Bit rate : 128 Kbps
Channel(s) : 2 channels
Sampling rate : 48.0 KHz
Stream size : 82.6 MiB (7%)
Alignment : Aligned on interleaves
Interleave, duration : 40 ms (1.00 video frame)
Interleave, preload duration : 504 ms
Writing library : LAME3.98r
Encoding settings : -m j -V 4 -q 2 -lowpass 17 -b 128
Sample: http://onemove.ru/64524/
Download / Скачать

Хотите скачать бесплатно? Зарегистрируйтесь на сайте (ссылка на регистрацию). Pirat.ca - самый быстрый торрент трекер в рунете!

Как скачивать  ·   Что такое торрент  ·   Рейтинг и ограничения



Последний раз редактировалось: Kotangens (2012-01-27 00:16), всего редактировалось 11 раз(а)

ksg111ban

Гроза морей

Пост 16-Янв-2012 16:34 (спустя 2 часа 50 минут)

[Q] 

Очень хорошее кино. Дапкунайте, Панину не уступает по актёрской игре. Спасибо за раздачу!

_________________
[Профиль]  [ЛС] 

Luzhok

Легенда

Пост 16-Янв-2012 20:36 (спустя 4 часа)

[Q] 

релизера не дождался
помогаю с раздачей, недолго
[Профиль]  [ЛС] 

Nitro

Корсар

Пост 17-Янв-2012 01:13 (спустя 4 часа)

[Q] 

нада посмотреть :)
[Профиль]  [ЛС] 

Пост 23-Янв-2012 11:59 (спустя 6 дней)

Топик был перенесен из форума Наше Кино в форум Российские фильмы

Skinwalker
 

kot45

Лоцман

Пост 07-Фев-2012 21:40 (спустя 21 день)

[Q] 

релизера не дождался
помогаю с раздачей, недолго
где скорость!!!????
[Профиль]  [ЛС] 
Показать сообщения:    
Ответить на тему

Текущее время: Сегодня 18:31

Часовой пояс: GMT + 4



Вы не можете начинать темы
Вы не можете отвечать на сообщения
Вы не можете редактировать свои сообщения
Вы не можете удалять свои сообщения
Вы не можете голосовать в опросах
Вы не можете прикреплять файлы к сообщениям
Вы не можете скачивать файлы

▼ Вниз