ML
     
  Уважаемый Гость!
Вы можете поддержать проект и зарегистрироваться у наших партнеров - онлайн-стратегия MyLands. При регистрации в игре Вы получите код, который сможете активировать после регистрации на pirat.ca и получить 1000 дублонов.

Ваш код:
4855957e17f50c5c1236a0f8c4492b2b0bba00a0
 
     

Подарок с характером (Карен Оганесян) [2014 г., семейный, приключения, комедия, HDRip] [Лицензия]

Ответить на тему
 
Автор
Сообщение

Пост 09-Авг-2014 11:07

[Q] 

ara1205

-Подарок с характером-- Производство: Россия
Год выпуска: 2014 г.
Жанр: семейный, приключения, комедия
Продолжительность: 01:28:13-Режиссер: Карен Оганесян-В ролях: Михаил Галустян, Артём Фадеев, Фёдор Бондарчук, Екатерина Климова, Николай Валуев, Ирина Безрукова, Катерина Шпица, Алексей Макаров, Константин Юшкевич, Инга Стрелкова-Оболдина-Описание: Быть пандой весело! Но не Мише, который вынужден работать в костюме панды на детских праздниках. Ему тридцать лет, он живет в крохотной однушке на окраине Москвы, и у него нет серьезной работы. Все было так, пока его не позвали на день рождения к сыну олигарха. Артему девять лет, и у него есть тайный план, помочь осуществить который может только Миша. Мальчик и панда отправляются в путешествие через всю страну, то и дело вляпываясь в невероятные ситуации.- -Качество видео: HDRip
Контейнер: AVI
Видео кодек: XviD
Аудио кодек: AC3
Видео: 720x384, 24,000 fps, 1762 kbps avg, 0.266 bit/pixel
Аудио: 48 kHz, AC3 Dolby Digital, 3/2 (L,C,R,l,r) + LFE ch, ~448 kbps
Cубтитры: отсутствуют-
Общее
Полное имя : C:\Users\Ромик\Pictures\Подарок с характером\P0dar0k.2014.O.HDRip.1400MB.avi
Формат : AVI
Формат/Информация : Audio Video Interleave
Размер файла : 1,37 Гбайт
Продолжительность : 1 ч. 28 м.
Общий поток : 2220 Кбит/сек
Программа кодирования : VirtualDubMod 1.5.10.2 (build 2540/release)
Библиотека кодирования : VirtualDubMod build 2540/release
Видео
Идентификатор : 0
Формат : MPEG-4 Visual
Профиль формата : Advanced [email protected]
Параметр BVOP формата : 2
Параметр QPel формата : Нет
Параметр GMC формата : Без точки перехода
Параметр матрицы формата : Default (MPEG)
Идентификатор кодека : XVID
Идентификатор кодека/Подсказка : XviD
Продолжительность : 1 ч. 28 м.
Битрейт : 1762 Кбит/сек
Ширина : 720 пикселей
Высота : 384 пикселя
Соотношение сторон : 1,85:1
Частота кадров : 24,000 кадра/сек
Цветовое пространство : YUV
Субдискретизация насыщенности : 4:2:0
Битовая глубина : 8 бит
Тип развёртки : Прогрессивная
Метод сжатия : С потерями
Бит/(Пиксели*Кадры) : 0.266
Размер потока : 1,09 Гбайт (79%)
Библиотека кодирования : XviD 1.2.1 (UTC 2008-12-04)
Аудио
Идентификатор : 1
Формат : AC-3
Формат/Информация : Audio Coding 3
Расширение режима : CM (complete main)
Параметр Endianness формата : Big
Идентификатор кодека : 2000
Продолжительность : 1 ч. 28 м.
Вид битрейта : Постоянный
Битрейт : 448 Кбит/сек
Каналы : 6 каналов
Расположение каналов : Front: L C R, Side: L R, LFE
Частота : 48,0 КГц
Битовая глубина : 16 бит
Метод сжатия : С потерями
Размер потока : 283 Мбайт (20%)
Выравнивание : Разделение по промежуткам
Продолжительность промежутка : 42 мс. (1,00 видеокадр)
Время предзагрузки промежутка : 500 мс.
-
-
-
Download / Скачать

Хотите скачать бесплатно? Зарегистрируйтесь на сайте (ссылка на регистрацию). Pirat.ca - самый быстрый торрент трекер в рунете!

Как скачивать  ·   Что такое торрент  ·   Рейтинг и ограничения

youfate

Корсар

Пост 09-Авг-2014 18:39 (спустя 7 часов)

[Q] 

Мне понравилось Раздающему респект!
[Профиль]  [ЛС] 

Танюха10988

Гроза морей

Пост 10-Авг-2014 00:37 (спустя 5 часов)

[Q] 

Спасибо, прикольно
[Профиль]  [ЛС] 

Gari4

Флибустьер

Пост 10-Авг-2014 02:42 (спустя 2 часа 5 минут)

[Q] 

не шедевр. 3 из 5.
Кино получилось длинным, на одном дыхании этого "малыша и карлсона" не посмотришь - нудность.
Да и шутки хоть и есть, но некоторые будто списаны с советских книг.
[Профиль]  [ЛС] 

Depressor

Флибустьер

Пост 19-Авг-2014 01:59 (спустя 8 дней)

[Q] 

ребят, добрый семейный фильм, с хорошим концом, есть доля сказочности ситуации, но фильм получился на удивление очень неплох)

_________________
[Профиль]  [ЛС] 

левка

Корсар

Пост 21-Авг-2014 20:48 (спустя 2 дня 18 часов)

[Q] 

ara1205, Спасибо!!!
[Профиль]  [ЛС] 

Kung-fu Cat

Морской Волк

Пост 11-Сен-2014 00:16 (спустя 20 дней)

[Q] 

Фильм норм - во всяком случае, лучше, чем сиквелы и ремейки советской классики, и многих других, что пачками сейчас штампуют, и которым самые низкие рейтинги присваивают.

_________________
[Профиль]  [ЛС] 

Golsergio

Флибустьер

Пост 11-Сен-2014 10:21 (спустя 10 часов)

[Q] 

глянем и заценим...спасибо
[Профиль]  [ЛС] 

Пост 11-Сен-2014 16:26 (спустя 6 часов)

Топик был перенесен из форума Фильмы 2010 - 2014 г.г. в форум Российские фильмы
LPPI
 
Показать сообщения:    
Ответить на тему

Текущее время: Сегодня 06:14

Часовой пояс: GMT + 4



Вы не можете начинать темы
Вы не можете отвечать на сообщения
Вы не можете редактировать свои сообщения
Вы не можете удалять свои сообщения
Вы не можете голосовать в опросах
Вы не можете прикреплять файлы к сообщениям
Вы не можете скачивать файлы

▼ Вниз