ML
     
  Уважаемый Гость!
Вы можете поддержать проект и зарегистрироваться у наших партнеров - онлайн-стратегия MyLands. При регистрации в игре Вы получите код, который сможете активировать после регистрации на pirat.ca и получить 1000 дублонов.

Ваш код:
ec3b26eefbcdc72e08e9fd33c6846bb2ca10f8b1
 
     

Иуда (Андрей Богатырев) [2013 г., драма, WEB-DLRip] Оригинальное [iTunes]

Ответить на тему
 
Автор
Сообщение

Пост 12-Авг-2014 11:53

[Q] 

LPPI

-Иуда-«Есть вещи, в которых нужно разобраться самому»- Производство: Россия, ABS Film Company, Россфильм
Жанр: драма
Год выпуска: 2013 г.
Продолжительность: 01:47:36
Российская премьера: 20 марта 2014, «Кинография»
Дата выхода DVD: 9 сентября 2014, «ВС трейд»-Режиссер: Андрей Богатырев
В ролях: Алексей Шевченков, Сергей Фролов, Андрей Барило, Иван Добронравов, Ольга Сташкевич, Алексей Боченин, Вадим Яковлев, Ольга Аксенова-Описание: Тайный смысл одного из самых известных библейских предательств не могут разгадать вот уже 2000 лет. Фильм-провокация Андрея Богатырёва «Иуда» по нашумевшей повести Леонида Андреева — это обратная сторона истории Иуды Искариота, апостола-изгоя, и поиск ответа на вопрос: почему на самом деле Иуда предал Христа?-Сэмпл КиноПоиск-Качество видео: WEB-DLRip
Контейнер: AVI
Видео кодек: XviD
Аудио кодек: AC3
Видео: 720x304 (2.37:1), 25 fps, XviD build 50 ~1739 kbps avg, 0.32 bit/pixel
Аудио: 48 kHz, AC3 Dolby Digital, 2/0 (L,R) ch, ~192 kbps [iTunes]
Cубтитры: отсутствуют
General
Complete name : D:\Iuda.2013.O.WEBDLRi.avi
Format : AVI
Format/Info : Audio Video Interleave
File size : 1.46 GiB
Duration : 1h 47mn
Overall bit rate : 1 942 Kbps
Writing application : VirtualDubMod 1.5.10.3 | www.virtualdub-fr.org || (build 2550/release)
Writing library : VirtualDubMod build 2550/release
Video
ID : 0
Format : MPEG-4 Visual
Format profile : Advanced [email protected]
Format settings, BVOP : 2
Format settings, QPel : No
Format settings, GMC : No warppoints
Format settings, Matrix : Default (MPEG)
Codec ID : XVID
Codec ID/Hint : XviD
Duration : 1h 47mn
Bit rate : 1 740 Kbps
Width : 720 pixels
Height : 304 pixels
Display aspect ratio : 2.35:1
Frame rate : 25.000 fps
Color space : YUV
Chroma subsampling : 4:2:0
Bit depth : 8 bits
Scan type : Progressive
Compression mode : Lossy
Bits/(Pixel*Frame) : 0.318
Stream size : 1.31 GiB (90%)
Writing library : XviD 1.2.1 (UTC 2008-12-04)
Audio
ID : 1
Format : AC-3
Format/Info : Audio Coding 3
Mode extension : CM (complete main)
Format settings, Endianness : Big
Codec ID : 2000
Duration : 1h 47mn
Bit rate mode : Constant
Bit rate : 192 Kbps
Channel(s) : 2 channels
Channel positions : Front: L R
Sampling rate : 48.0 KHz
Bit depth : 16 bits
Compression mode : Lossy
Stream size : 148 MiB (10%)
Alignment : Split accross interleaves
Interleave, duration : 40 ms (1.00 video frame)
Interleave, preload duration : 500 ms
Download / Скачать

Хотите скачать бесплатно? Зарегистрируйтесь на сайте (ссылка на регистрацию). Pirat.ca - самый быстрый торрент трекер в рунете!

Как скачивать  ·   Что такое торрент  ·   Рейтинг и ограничения

Пост 12-Авг-2014 12:05 (спустя 12 минут)

Топик был перенесен из форума Наше кино (Трюм) в форум Новинки (HD|DVD|BD| TV|SAT|PDTV| - Rips)
kugesan
 

HEDGEHOG932

Корсар

Пост 12-Авг-2014 20:17 (спустя 8 часов)

[Q] 

спасибо посмотрим!!!!!!!!!

_________________

[Профиль]  [ЛС] 

polozm

Легенда

Пост 12-Авг-2014 20:29 (спустя 11 минут)

[Q] 

Фильм-провокация Андрея Богатырёва
на хрен такие провокации...

_________________
mac mini -2.0 GHz Intel Core i7/ 8 GB DDR3. /Intel HD 3000(512mb)OS X 10.9 Mavericks
[Профиль]  [ЛС] 

Apostle358

Корсар

151

Пост 13-Авг-2014 11:38 (спустя 15 часов)

[Q] 

Фильм - фуфло, даже не смотрите. Лучше Булгакова, ни кто не описал те моменты, даже сама Библия.
[Профиль]  [ЛС] 

Танюха10988

Гроза морей

Пост 13-Авг-2014 14:25 (спустя 2 часа 46 минут)

[Q] 

Спасибо, посмотрю...
[Профиль]  [ЛС] 

Полтос

Флибустьер

Пост 15-Авг-2014 07:10 (спустя 1 день 16 часов)

[Q] 

Как не бывает монеты без второй стороны, так не возможно представить становление христианства без поступка Иуды. Слышал недавно о находке Евангелия от Иуды, слышал и о версии, что он был самым любимым его учеником и сподвижником, без низкого поступка которого не возможно было достичь поставленной Спасителем цели... Теперь собственно о фильме. Единственное что в нем есть - это бесподобная игра Алексея Шевченкова, играющего главную роль. Канонически Иуда - философ, размышляющий о благе иудейского народа, здесь он представлен в совершенно другом свете - бывшим вором, размышляющем о будущем учения Христа. Остальным персонажам незаслуженно отдана второстепенная роль - блеклая игра актеров сводит на нет восприятие картины. Допускаю, что автор, сконцентрировав внимание зрителей на Иуде, специально размыл остальные образы, чтобы донести до зрителя свою идею. Здесь есть о чем подумать, есть с чем не согласиться, но в целом, для себя, считаю время не потрачено зря.
Мне понравилось Спасибо!!!

_________________
Первый закон Прапорщика: Всё что поднимаемо - относительно!)
[Профиль]  [ЛС] 

balamutych 8

Шкипер

Пост 16-Авг-2014 08:34 (спустя 1 день 1 час)

[Q] 

Спасибо, посмотрю...
[Профиль]  [ЛС] 

Skat.56

Гроза морей

448

Пост 13-Сен-2014 20:58 (спустя 28 дней)

[Q] 

568110Фильм - фуфло, даже не смотрите. Лучше Булгакова, ни кто не описал те моменты, даже сама Библия.
Ну фигли Булгаков то там лично был)
Добавлено спустя 49 секунд:
Фильм кстати неплохой
[Профиль]  [ЛС] 

Пост 15-Сен-2014 11:07 (спустя 1 день 14 часов)

Топик был перенесен из форума Новинки (HD|DVD|BD| TV|SAT|PDTV| - Rips) в форум Российские фильмы
ara1205
 
Показать сообщения:    
Ответить на тему

Текущее время: Сегодня 03:45

Часовой пояс: GMT + 4



Вы не можете начинать темы
Вы не можете отвечать на сообщения
Вы не можете редактировать свои сообщения
Вы не можете удалять свои сообщения
Вы не можете голосовать в опросах
Вы не можете прикреплять файлы к сообщениям
Вы не можете скачивать файлы

▼ Вниз