ML
     
  Уважаемый Гость!
Вы можете поддержать проект и зарегистрироваться у наших партнеров - онлайн-стратегия MyLands. При регистрации в игре Вы получите код, который сможете активировать после регистрации на pirat.ca и получить 1000 дублонов.

Ваш код:
156f85568ae63e45e07ac461c96a83ba1a876b0a
 
     

Небо падших (Валентин Донсков) [2014 г., Драма, WEBRip] (Оригинальное)

Ответить на тему
 
Автор
Сообщение

Пост 21-Авг-2014 00:41

[Q] 

Goodwill

-Небо падших-- Производство: Россия / Народное кино
Режиссер: Валентин Донсков
Жанр: Драма
Год выпуска: 2014 г.
Продолжительность: 02:01:47
Российская премьера: 17 апреля 2014, «АКМ
В ролях: Кирилл Плетнёв, Екатерина Вилкова, Анастасия Панина, Даниил Воробьев, Александр Сирин, Александр Наумов, Егор Баринов, Владислав Ветров, Александр Печенин, Дмитрий Калистратов-Описание: Конец 1980-х. Павел Шарманов, будучи студентом авиационного института, всегда бредящий небом, начинал сторожем в музее авиации под открытым небом. Эта работа стремительно и кардинально изменила его дальнейшую жизнь. 1990-е. Перестройка. Деньги, власть, взятки, предательство друзей. Шарманов — основатель и владелец крупнейшей авиационной компании в стране. Все блага мира у его ног. Бери, что хочешь. Единственно, что недоступно успешному молодому мужчине — любовь. Он не ищет ее, но она найдет его «совсем нежданно», закрутит в лихом вихре, поднимет высоко в небеса, заставит чувствовать, парить и не придавать значения материальному… Чем выше и быстрее взлетаешь, тем быстрее и больнее падаешь. Любовь милосердна, но порой и жестока, и как любить, каждый решает сам…-Сэмпл КиноПоиск
Качество видео: WEBRip
Контейнер: AVI
Видео кодек: XviD
Аудио кодек: AC3
Видео: 720x384 (1.88:1), 24.000 fps, XviD build 50 ~1469 kbps avg, 0.22 bit/pixel
Аудио: 44.1 kHz, AC3 Dolby Digital, 2/0 (L,R) ch, ~128 kbps
Cубтитры: отсутствуют
Общее
Полное имя : W:\Nebo.padsh1h.2014.O.WEBRip.1400MB.avi
Формат : AVI
Формат/Информация : Audio Video Interleave
Размер файла : 1,37 Гбайт
Продолжительность : 2 ч. 1 м.
Общий поток : 1607 Кбит/сек
Программа кодирования : VirtualDubMod 1.5.10.3 | www.virtualdub-fr.org || (build 2550/release)
Библиотека кодирования : VirtualDubMod build 2550/release
Видео
Идентификатор : 0
Формат : MPEG-4 Visual
Профиль формата : Advanced [email protected]
Параметр BVOP формата : 2
Параметр QPel формата : Нет
Параметр GMC формата : Без точки перехода
Параметр матрицы формата : Default (MPEG)
Идентификатор кодека : XVID
Идентификатор кодека/Подсказка : XviD
Продолжительность : 2 ч. 1 м.
Битрейт : 1469 Кбит/сек
Ширина : 720 пикс.
Высота : 384 пикс.
Соотношение сторон : 1,875
Частота кадров : 24,000 кадр/сек
Цветовое пространство : YUV
Подвыборка цветности : 4:2:0
Битовая глубина : 8 бит
Тип развёртки : Прогрессивная
Метод сжатия : С потерями
Бит/(Пиксели*Кадры) : 0.221
Размер потока : 1,25 Гбайт (91%)
Библиотека кодирования : XviD 1.2.1 (UTC 2008-12-04)
Аудио
Идентификатор : 1
Формат : AC-3
Формат/Информация : Audio Coding 3
Расширение режима : CM (complete main)
Идентификатор кодека : 2000
Продолжительность : 2 ч. 1 м.
Вид битрейта : Постоянный
Битрейт : 128 Кбит/сек
Канал(ы) : 2 канала(ов)
Расположение каналов : Front: L R
Частота : 44,1 КГц
Битовая глубина : 16 бит
Метод сжатия : С потерями
Размер потока : 112 Мбайт (8%)
Выравнивание : Разделение по промежуткам
Продолжительность промежутка : 42 мс. (1,00 видеокадр)
Время предзагрузки промежутка : 500 ms
Download / Скачать

Хотите скачать бесплатно? Зарегистрируйтесь на сайте (ссылка на регистрацию). Pirat.ca - самый быстрый торрент трекер в рунете!

Как скачивать  ·   Что такое торрент  ·   Рейтинг и ограничения

Пост 21-Авг-2014 09:31 (спустя 8 часов)

Топик был перенесен из форума Наше кино (Трюм) в форум Новинки (HD|DVD|BD| TV|SAT|PDTV| - Rips)
LPPI
 

Alexlogin

Гроза морей

105

Пост 21-Авг-2014 11:43 (спустя 11 часов)

[Q] 

Спасибо, качаем смотрим
[Профиль]  [ЛС] 

KoSkud

Флибустьер

Пост 21-Авг-2014 20:06 (спустя 8 часов)

[Q] 

Первый скрин в очередной раз подтверждает настоящее амплуа Вилковой )) чего с Берковой сразу сниматься не захотела? =) за раздачу спасибо

_________________
Учись-играя,играя-учись
[Профиль]  [ЛС] 

Ветер перемен

Шкипер

Пост 21-Авг-2014 20:52 (спустя 45 минут)

[Q] 

дддддддддддддддддаааааааааааааааааааа??? незнаю )))) ёп

_________________
Каррамба !!!
[Профиль]  [ЛС] 

zlotosalien

Флибустьер

Пост 21-Авг-2014 20:56 (спустя 3 минуты)

[Q] 

Кирилл Плетнёв, актер от Бога! Играет всегда на все 100!
[Профиль]  [ЛС] 

гришасемечкин

Корсар

1160

Пост 22-Авг-2014 23:15 (спустя 1 день 2 часа)

[Q] 

Первый скрин в очередной раз подтверждает настоящее амплуа Вилковой ))
Базару нет скрин зачётный. Надо смотреть. А то может он её не сношает, а просто душит, драма всё таки!!! Всем качать!!! Всем качать!!!
[Профиль]  [ЛС] 

mayer550

Лоцман

Пост 27-Авг-2014 14:24 (спустя 4 дня)

[Q] 

Так убого сняли! Книга в 100 раз интересней! Трафик потрачен зря!
[Профиль]  [ЛС] 

umfal

Шкипер

Пост 30-Авг-2014 00:35 (спустя 2 дня 10 часов)

[Q] 

Вообще имеет смысл смотреть или совсем на любителя?
Кстати почему-то не качает: Tracker gave HTTP response code 301 (Moved Permanently)
[Профиль]  [ЛС] 

dos1m

Штурман

Пост 30-Авг-2014 18:24 (спустя 17 часов)

[Q] 

Фильм просто замечательный. Мы с женой смотрели. Честно говоря давно (относительно) не видел в отечественном кинематографе при малом бюджете.
Интересный сюжет. Кино держит у экрана.
Книгу не читал, но появилось желание прочитать.
В общем +

_________________

[Профиль]  [ЛС] 

Maris

Шкипер

Пост 31-Авг-2014 18:55 (спустя 1 день)

[Q] 

Постер просто пипец — работа пятиклассника по основам фотошопа. Есть ощущение, что фильм ему под стать.
[Профиль]  [ЛС] 

ZAMOK

Корсар

Пост 09-Май-2015 19:41 (спустя 8 месяцев 9 дней)

[Q] 

Раздающему респект!

_________________
Не бойся того,с чем не сталкивался.
[Профиль]  [ЛС] 

solisitor68

Лоцман

Пост 11-Май-2015 12:38 (спустя 1 день 16 часов)

[Q] 

Хороший фильм Респект раздающему Спасибо!!!
[Профиль]  [ЛС] 
Показать сообщения:    
Ответить на тему

Текущее время: Сегодня 21:58

Часовой пояс: GMT + 4



Вы не можете начинать темы
Вы не можете отвечать на сообщения
Вы не можете редактировать свои сообщения
Вы не можете удалять свои сообщения
Вы не можете голосовать в опросах
Вы не можете прикреплять файлы к сообщениям
Вы не можете скачивать файлы

▼ Вниз