ML
     
  Уважаемый Гость!
Вы можете поддержать проект и зарегистрироваться у наших партнеров - онлайн-стратегия MyLands. При регистрации в игре Вы получите код, который сможете активировать после регистрации на pirat.ca и получить 1000 дублонов.

Ваш код:
ec3b26eefbcdc72e08e9fd33c6846bb2ca10f8b1
 
     

Шагал – Малевич (Александр Митта) [2014 г., биография, история, WEB-DLRip]

Ответить на тему
 
Автор
Сообщение

Пост 26-Авг-2014 08:46

[Q] 

LPPI

-Шагал – Малевич- Производство: Россия
Жанр: биография, история
Год выпуска: 2014 г.
Продолжительность: 02:01:23
Российская премьера: 3 апреля 2014, «Арена»-Режиссер: Александр Митта
В ролях: Леонид Бичевин, Кристина Шнайдерман, Анатолий Белый, Семён Шкаликов, Дмитрий Астрахан, Яша Левда, Алексей Овсянников, Дарья Пашкова, Филипп Жлоба, Олег Жаков-Описание: Когда вихри революции стирают с лица земли провинциальный уклад еврейского Витебска и последние становятся первыми, только удивительная вера и безусловная преданность мужу позволяют Белле Шагал спасти своего гениального Марка.
История самозабвенной любви Беллы Шагал, супруги великого художника Марка Шагала протекает на фоне исторической дуэли ее мужа со своим гениальным современником-антиподом Казимиром Малевичем и другой, еще более отчаянной схватки с другом детства, а ныне красным комиссаром Наумом за сердце Беллы.-Сэмпл КиноПоиск-Качество видео: WEB-DLRip
Контейнер: AVI
Видео кодек: XviD
Аудио кодек: AC3
Видео: 720x384 (1.88:1), 24 fps, XviD build 50 ~2030 kbps avg, 0.31 bit/pixel
Аудио: 48 kHz, AC3 Dolby Digital, 3/2 (L,C,R,l,r) + LFE ch, ~384 kbps
Cубтитры: отсутствуют
General
Complete name : D:\Sh4g4l.M4lev1ch.2014.O.WEB-DLRip.2100MB.avi
Format : AVI
Format/Info : Audio Video Interleave
Format profile : OpenDML
File size : 2.05 GiB
Duration : 2h 1mn
Overall bit rate : 2 421 Kbps
Writing application : VirtualDubMod 1.5.10.3 | www.virtualdub-fr.org || (build 2550/release)
Writing library : VirtualDubMod build 2550/release
Video
ID : 0
Format : MPEG-4 Visual
Format profile : Advanced [email protected]
Format settings, BVOP : 2
Format settings, QPel : No
Format settings, GMC : No warppoints
Format settings, Matrix : Default (MPEG)
Codec ID : XVID
Codec ID/Hint : XviD
Duration : 2h 1mn
Bit rate : 2 025 Kbps
Width : 720 pixels
Height : 384 pixels
Display aspect ratio : 1.85:1
Frame rate : 24.000 fps
Color space : YUV
Chroma subsampling : 4:2:0
Bit depth : 8 bits
Scan type : Progressive
Compression mode : Lossy
Bits/(Pixel*Frame) : 0.305
Stream size : 1.72 GiB (84%)
Writing library : XviD 1.2.1 (UTC 2008-12-04)
Audio
ID : 1
Format : AC-3
Format/Info : Audio Coding 3
Mode extension : CM (complete main)
Format settings, Endianness : Big
Codec ID : 2000
Duration : 2h 1mn
Bit rate mode : Constant
Bit rate : 384 Kbps
Channel(s) : 6 channels
Channel positions : Front: L C R, Side: L R, LFE
Sampling rate : 48.0 KHz
Bit depth : 16 bits
Compression mode : Lossy
Stream size : 333 MiB (16%)
Alignment : Split accross interleaves
Interleave, duration : 42 ms (1.00 video frame)
Interleave, preload duration : 500 ms
Download / Скачать

Хотите скачать бесплатно? Зарегистрируйтесь на сайте (ссылка на регистрацию). Pirat.ca - самый быстрый торрент трекер в рунете!

Как скачивать  ·   Что такое торрент  ·   Рейтинг и ограничения

Пост 26-Авг-2014 10:50 (спустя 2 часа 4 минуты)

Топик был перенесен из форума Наше кино (Трюм) в форум Новинки (HD|DVD|BD| TV|SAT|PDTV| - Rips)
ara1205
 

KoNiaL_KCC

Гроза морей

Пост 26-Авг-2014 22:25 (спустя 13 часов)

[Q] 

а где скриншоты Раздающему респект!
[Профиль]  [ЛС] 

SashaMkaban

Корсар

Пост 26-Авг-2014 22:28 (спустя 2 минуты)

[Q] 

KoNiaL&KCC, у меня скрины показывает, все ок.
[Профиль]  [ЛС] 

zavroi

Штурман

Пост 30-Авг-2014 21:51 (спустя 3 дня)

[Q] 

Спасибо!!! Одобрямс!
[Профиль]  [ЛС] 
Показать сообщения:    
Ответить на тему

Текущее время: Сегодня 03:47

Часовой пояс: GMT + 4



Вы не можете начинать темы
Вы не можете отвечать на сообщения
Вы не можете редактировать свои сообщения
Вы не можете удалять свои сообщения
Вы не можете голосовать в опросах
Вы не можете прикреплять файлы к сообщениям
Вы не можете скачивать файлы

▼ Вниз