ML
     
  Уважаемый Гость!
Вы можете поддержать проект и зарегистрироваться у наших партнеров - онлайн-стратегия MyLands. При регистрации в игре Вы получите код, который сможете активировать после регистрации на pirat.ca и получить 1000 дублонов.

Ваш код:
21acd5966619d49ad0b90c3305467b4646cc11a8
 
     

Утомленные солнцем (Никита Михалков) [1994 г., драма, военный, DVDRip]

Ответить на тему
 
Автор
Сообщение

Пост 02-Сен-2014 08:46

[Q] 

snotling

Юнга

-Утомленные солнцем -- Производство: Россия, Франция
Режиссер: Никита Михалков
Жанр: драма, военный
Год выпуска: 1994 г.
Продолжительность: 02:25:38
В ролях: Олег Меньшиков, Никита Михалков, Ингеборга Дапкунайте, Надежда Михалкова, Андре Умански, Вячеслав Тихонов, Светлана Крючкова, Владимир Ильин, Алла Казанская, Нина Архипова-Описание: Солнечный летний день 1936 года. Молодая страна, полная энтузиазма, празднует 4-ю годовщину сталинского дирижаблестроения. Легендарный комдив Котов и его большая шумная семья отдыхают на даче. В старом доме собралась тьма народу: жена-красавица, непоседа-дочь, тесть — известный русский дирижер, родственники и друзья, домработницы и соседи.
Веселье бьет через край, и мысль, что что-то в жизни может измениться, покажется всем абсурдом. Они все будут счастливы вечно! И никто, даже мудрый Котов, не хочет верить в неизбежное. В то, что этот солнечный день кончится — и не повторится уже никогда.-КиноПоиск
Качество видео: DVDRip
Контейнер: AVI
Видео кодек: XviD
Аудио кодек: MP3
Видео: 608x368 (1.65:1), 25 fps, XviD build 65 ~933 kbps avg, 0.17 bit/pixel
Аудио: 48 kHz, MPEG Layer 3, 2 ch, ~128.00 kbps avg
Государственная премия России, 2 приза российской кинопрессы — за лучшую картину и мужскую роль.
Британская академия, 1996 год
Номинации:
- Лучший фильм на иностранном языке
Оскар, 1995 год.
Победитель:
- Лучший фильм на иностранном языке — «Россия»
Каннский кинофестиваль, 1994 год
Победитель:
- Большой приз жюри
Приз экуменического (христианского) жюри
Номинации: Золотая пальмовая ветвь
Общее
Полное имя : G:\кины\Утомленные солнцем (1994) DVDRip[pirat.ca].avi
Формат : AVI
Формат/Информация : Audio Video Interleave
Размер файла : 1,09 Гбайт
Продолжительность : 2 ч. 25 м.
Общий поток : 1072 Кбит/сек
Программа кодирования : VirtualDubMod 1.5.10.3 | www.virtualdub-fr.org || (build 2550/release)
Библиотека кодирования : VirtualDubMod build 2550/release
Видео
Идентификатор : 0
Формат : MPEG-4 Visual
Профиль формата : Advanced [email protected]
Параметр BVOP формата : 1
Параметр QPel формата : Нет
Параметр GMC формата : Без точки перехода
Параметр матрицы формата : Выборочная
Идентификатор кодека : XVID
Идентификатор кодека/Подсказка : XviD
Продолжительность : 2 ч. 25 м.
Битрейт : 934 Кбит/сек
Ширина : 608 пикселей
Высота : 368 пикселей
Соотношение сторон : 1,652
Частота кадров : 25,000 кадров/сек
Цветовое пространство : YUV
Субдискретизация насыщенности : 4:2:0
Битовая глубина : 8 бит
Тип развёртки : Прогрессивная
Метод сжатия : С потерями
Бит/(Пиксели*Кадры) : 0.167
Размер потока : 973 Мбайт (87%)
Библиотека кодирования : XviD 65
Аудио
Идентификатор : 1
Формат : MPEG Audio
Версия формата : Version 1
Профиль формата : Layer 3
Идентификатор кодека : 55
Идентификатор кодека/Подсказка : MP3
Продолжительность : 2 ч. 25 м.
Вид битрейта : Постоянный
Битрейт : 128 Кбит/сек
Каналы : 2 канала
Частота : 48,0 КГц
Метод сжатия : С потерями
Размер потока : 133 Мбайт (12%)
Выравнивание : Соединение по промежуткам
Продолжительность промежутка : 40 мс. (1,00 видеокадр)
Время предзагрузки промежутка : 504 мс.
Библиотека кодирования : LAME3.98r
Настройки программы : -m s -V 4 -q 0 -lowpass 17 -b 128
Download / Скачать

Хотите скачать бесплатно? Зарегистрируйтесь на сайте (ссылка на регистрацию). Pirat.ca - самый быстрый торрент трекер в рунете!

Как скачивать  ·   Что такое торрент  ·   Рейтинг и ограничения

SHERHAN

683

Пост 02-Сен-2014 09:52 (спустя 1 час 5 минут)

[Q] 

интересный размер релиза 1,09

_________________
Рыжий хищник, полосатый,
В меру наглый и усатый,
Днём и ночью он не спит,
Зорко в монитор глядит!
[Профиль]  [ЛС] 

Пост 03-Сен-2014 10:32 (спустя 1 день)

Топик был перенесен из форума Наше кино (Трюм) в форум Российские фильмы
ara1205
 

ara1205

69741

Пост 03-Сен-2014 10:34 (спустя 1 день)

[Q] 

575963интересный размер релиза 1,09
Такой размер делается вместо 700метровок если время фильма больше 1 час 55 мин, чтоб битрейт видео не был сильно маленьким.
[Профиль]  [ЛС] 

UcrusPazzo

7670

Пост 05-Дек-2014 21:43 (спустя 3 месяца 2 дня)

[Q] 

AntiZip

_________________
[Профиль]  [ЛС] 
Показать сообщения:    
Ответить на тему

Текущее время: Сегодня 23:17

Часовой пояс: GMT + 4



Вы не можете начинать темы
Вы не можете отвечать на сообщения
Вы не можете редактировать свои сообщения
Вы не можете удалять свои сообщения
Вы не можете голосовать в опросах
Вы не можете прикреплять файлы к сообщениям
Вы не можете скачивать файлы

▼ Вниз