ML
     
  Уважаемый Гость!
Вы можете поддержать проект и зарегистрироваться у наших партнеров - онлайн-стратегия MyLands. При регистрации в игре Вы получите код, который сможете активировать после регистрации на pirat.ca и получить 1000 дублонов.

Ваш код:
4399ab8611ee7f8a22949d2ee7634160dd2db7e0
 
     

Француз (Вера Сторожева) [2003 г., Комедия, Мелодрама, DVDRip]

Ответить на тему
 
Автор
Сообщение

Пост 12-Сен-2014 16:15

[Q] 

Goodwill

-Француз-- Производство: Россия
Режиссер: Вера Сторожева
Жанр: Комедия, Мелодрама
Год выпуска: 2003 г.
Продолжительность: 01:38:59
Российская премьера: 7 января 2004
В ролях: Тьери Монфре, Мария Голубкина, Гарик Сукачев, Екатерина Вуличенко, Станислав Дружников, Михаил Ефремов, Бернар Пассави, Нина Русланова, Сергей Попов-Описание: Он — потомственный аристократ, живущий в роскошном замке под Парижем и мечтающий о настоящем, искреннем чувстве. Она — скромная переводчица из российской глубинки. По счастливой случайности судьба свела их вместе. И эта встреча изменила не только их жизни, но и судьбы всех обитателей одного провинциального городка.-КиноПоиск
Качество видео: DVDRip
Контейнер: AVI
Видео кодек: DivX
Аудио кодек: MP3
Видео: 576x336 (1.71:1), 29.970 fps, DivX ~871 kbps avg, 0.15 bit/pixel
Аудио: 48 kHz, MPEG Layer 3, 2 ch, ~96.00 kbps avg
Cубтитры: отсутствуют
Общее
Полное имя : W:\frantsuz.avi
Формат : AVI
Формат/Информация : Audio Video Interleave
Размер файла : 693 Мбайт
Продолжительность : 1 ч. 38 м.
Общий поток : 979 Кбит/сек
Библиотека кодирования : VirtualDub build 15654/release
Видео
Идентификатор : 0
Формат : MPEG-4 Visual
Параметр BVOP формата : 1
Параметр QPel формата : Нет
Параметр GMC формата : Без точки перехода
Параметр матрицы формата : Default (H.263)
Режим смешивания : Сжатый битовый поток
Идентификатор кодека : DX50
Идентификатор кодека/Подсказка : DivX 5
Продолжительность : 1 ч. 38 м.
Битрейт : 872 Кбит/сек
Ширина : 576 пикс.
Высота : 336 пикс.
Соотношение сторон : 16:9
Частота кадров : 29,970 кадр/сек
Цветовое пространство : YUV
Подвыборка цветности : 4:2:0
Битовая глубина : 8 бит
Тип развёртки : Прогрессивная
Метод сжатия : С потерями
Бит/(Пиксели*Кадры) : 0.150
Размер потока : 617 Мбайт (89%)
Библиотека кодирования : DivX 5.0.4 (UTC 2003-04-17)
Аудио
Идентификатор : 1
Формат : MPEG Audio
Версия формата : Version 1
Профиль формата : Layer 3
Режим : Joint stereo
Расширение режима : Intensity Stereo + MS Stereo
Идентификатор кодека : 55
Идентификатор кодека/Подсказка : MP3
Продолжительность : 1 ч. 38 м.
Вид битрейта : Постоянный
Битрейт : 96,0 Кбит/сек
Канал(ы) : 2 канала(ов)
Частота : 48,0 КГц
Метод сжатия : С потерями
Размер потока : 68,0 Мбайт (10%)
Выравнивание : Разделение по промежуткам
Продолжительность промежутка : 33 мс. (1,00 видеокадр)
Время предзагрузки промежутка : 500 ms
Download / Скачать

Хотите скачать бесплатно? Зарегистрируйтесь на сайте (ссылка на регистрацию). Pirat.ca - самый быстрый торрент трекер в рунете!

Как скачивать  ·   Что такое торрент  ·   Рейтинг и ограничения

Пост 12-Сен-2014 17:00 (спустя 45 минут)

Топик был перенесен из форума Наше кино (Трюм) в форум Российские фильмы
ara1205
 
Показать сообщения:    
Ответить на тему

Текущее время: Сегодня 10:43

Часовой пояс: GMT + 4



Вы не можете начинать темы
Вы не можете отвечать на сообщения
Вы не можете редактировать свои сообщения
Вы не можете удалять свои сообщения
Вы не можете голосовать в опросах
Вы не можете прикреплять файлы к сообщениям
Вы не можете скачивать файлы

▼ Вниз