ML
     
  Уважаемый Гость!
Вы можете поддержать проект и зарегистрироваться у наших партнеров - онлайн-стратегия MyLands. При регистрации в игре Вы получите код, который сможете активировать после регистрации на pirat.ca и получить 1000 дублонов.

Ваш код:
bc31d8aef74c92e19ad67e34a8fa63c3b9b812fb
 
     

Процесс (Константин Селиверстов) [2014 г., драма, DVDRip]

Ответить на тему
 
Автор
Сообщение

Пост 14-Сен-2014 11:25

[Q] 

ara1205

-Процесс-- Производство: Россия
Год выпуска: 2014 г.
Жанр: драма
Продолжительность: 01:42:33-Режиссер: Константин Селиверстов-В ролях: Антон Шварц, Елена Шварева, Вилли Семенов, Наталья Шамина, Александр Анисимов, Андрей Шимко, Николай Молодожен, Игорь Головин, Виктория Нарахса, Феликс Модель, Владимир Космидайло-Описание: Экранизация романа Франца Кафки «Процесс». Герой фильма Йозеф К, банковский служащий, арестован по необоснованному обвинению. Но арест этот условный — Йозеф К. может вести обычную жизнь, время от времени являясь на допросы. Однако, чем дальше раскручивается процесс, тем все более парадоксальные формы он принимает. Герой фильма не может защититься от обвинения в частности ещё и потому, что никто не сообщает ему, в чем это обвинение состоит. Он пытается найти помощь у самых разных людей и никто ему в помощи не отказывает. Но беда в том, что все эти «помощники» так или иначе связаны с таинственным судом.- -Качество видео: DVDRip
Контейнер: AVI
Видео кодек: XviD
Аудио кодек: AC3
Видео: 704x400, 25,000 fps, 1822 kbps avg, 0.259 bit/pixel
Аудио: 48 kHz, AC3 Dolby Digital, 2 ch, 192 kbps
Cубтитры: отсутствуют-
Общее
Полное имя : C:\Users\Ромик\Pictures\Процесс\Process.2014.XviD.DVDRip.avi
Формат : AVI
Формат/Информация : Audio Video Interleave
Размер файла : 1,45 Гбайт
Продолжительность : 1 ч. 42 м.
Общий поток : 2024 Кбит/сек
Программа кодирования : VirtualDubModRus 1.5.10.2 (build 2542/release)
Библиотека кодирования : VirtualDubMod build 2542/release
Видео
Идентификатор : 0
Формат : MPEG-4 Visual
Профиль формата : Advanced [email protected]
Параметр BVOP формата : 2
Параметр QPel формата : Нет
Параметр GMC формата : Без точки перехода
Параметр матрицы формата : Default (MPEG)
Идентификатор кодека : XVID
Идентификатор кодека/Подсказка : XviD
Продолжительность : 1 ч. 42 м.
Битрейт : 1822 Кбит/сек
Ширина : 704 пикселя
Высота : 400 пикселей
Соотношение сторон : 16:9
Частота кадров : 25,000 кадров/сек
Цветовое пространство : YUV
Субдискретизация насыщенности : 4:2:0
Битовая глубина : 8 бит
Тип развёртки : Прогрессивная
Метод сжатия : С потерями
Бит/(Пиксели*Кадры) : 0.259
Размер потока : 1,31 Гбайт (90%)
Библиотека кодирования : XviD 1.2.1 (UTC 2008-12-04)
Аудио
Идентификатор : 1
Формат : AC-3
Формат/Информация : Audio Coding 3
Расширение режима : CM (complete main)
Параметр Endianness формата : Big
Идентификатор кодека : 2000
Продолжительность : 1 ч. 42 м.
Вид битрейта : Постоянный
Битрейт : 192 Кбит/сек
Каналы : 2 канала
Расположение каналов : Front: L R
Частота : 48,0 КГц
Битовая глубина : 16 бит
Метод сжатия : С потерями
Размер потока : 141 Мбайт (9%)
Выравнивание : Разделение по промежуткам
Продолжительность промежутка : 40 мс. (1,00 видеокадр)
Время предзагрузки промежутка : 500 мс.
-
-
-
Download / Скачать

Хотите скачать бесплатно? Зарегистрируйтесь на сайте (ссылка на регистрацию). Pirat.ca - самый быстрый торрент трекер в рунете!

Как скачивать  ·   Что такое торрент  ·   Рейтинг и ограничения

s_s

Гроза морей

Пост 15-Сен-2014 20:33 (спустя 1 день 9 часов)

[Q] 

сильно тяжёлый или средне?:)

_________________
в себе самом добра со злом
[Профиль]  [ЛС] 
Показать сообщения:    
Ответить на тему

Текущее время: Сегодня 12:02

Часовой пояс: GMT + 4



Вы не можете начинать темы
Вы не можете отвечать на сообщения
Вы не можете редактировать свои сообщения
Вы не можете удалять свои сообщения
Вы не можете голосовать в опросах
Вы не можете прикреплять файлы к сообщениям
Вы не можете скачивать файлы

▼ Вниз